<?xml version="1.0" standalone="no"?>
<!DOCTYPE svg PUBLIC "-//W3C//DTD SVG 1.1//EN" "http://www.w3.org/Graphics/SVG/1.1/DTD/svg11.dtd" >
<svg>
<metadata>
Created by FontForge 20090914 at Wed Oct  1 04:40:44 2014
 By www-data
</metadata>
<defs>
<font id="DINAlternate-Medium" horiz-adv-x="1024" >
  <font-face 
    font-family="DIN Alternate Medium"
    font-weight="500"
    font-stretch="normal"
    units-per-em="2048"
    panose-1="2 2 5 0 0 0 0 0 0 0"
    ascent="1638"
    descent="-410"
    x-height="1038"
    cap-height="1458"
    bbox="-225 -432.002 2331 2048"
    underline-thickness="70"
    underline-position="-102"
    unicode-range="U+0020-U+2219"
  />
<missing-glyph horiz-adv-x="1536" 
d="M256 0v1280h1024v-1280h-1024zM1247 33v1214h-958v-1214h958z" />
    <glyph glyph-name=".notdef" horiz-adv-x="1536" 
d="M256 0v1280h1024v-1280h-1024zM1247 33v1214h-958v-1214h958z" />
    <glyph glyph-name="space" unicode=" " horiz-adv-x="492" 
 />
    <glyph glyph-name="exclam" unicode="!" horiz-adv-x="680" 
d="M502 1458l-47 -1024h-158l-49 1024h254zM508 127c0 -36.667 -13 -68 -39 -94s-57.333 -39 -94 -39s-68 13 -94 39s-39 57.333 -39 94s13 68 39 94s57.333 39 94 39s68 -13 94 -39s39 -57.333 39 -94z" />
    <glyph glyph-name="quotedbl" unicode="&#x22;" horiz-adv-x="909" 
d="M750 1067h-207v391h207v-391zM367 1067h-207v391h207v-391z" />
    <glyph glyph-name="numbersign" unicode="#" horiz-adv-x="1376" 
d="M1276 872h-189l-40 -254h161v-192h-192l-68 -426h-217l68 426h-281l-65 -426h-220l68 426h-162v192h193l41 254h-166v193h194l64 401h219l-63 -401h278l64 401h217l-64 -401h160v-193zM868 872h-278l-41 -254h280z" />
    <glyph glyph-name="dollar" unicode="$" horiz-adv-x="1245" 
d="M1139 416c0 -79.333 -18.5 -149.671 -55.5 -211.004s-88.833 -109.833 -155.5 -145.5s-144 -57.5 -232 -65.5v-227h-168v221c-48.667 2 -93.5 6.83301 -134.5 14.5s-81.5 19.5 -121.5 35.5s-76.667 35.5 -110 58.5s-67 50.833 -101 83.5l148 146
c47.333 -47.333 98 -81.5 152 -102.5s116 -33.5 186 -37.5v455l-53 6c-58.667 8 -111 22.167 -157 42.5s-85.333 45.166 -118 74.499c-72 66.667 -108 159.334 -108 278.001c0 78 16.667 147.5 50 208.5s81.666 110.167 144.999 147.5s137.333 60 222 68v185h168v-183
c80 -4.66699 151.5 -20.167 214.5 -46.5s121.833 -65.166 176.5 -116.499l-141 -140c-69.333 65.333 -158.666 102.333 -267.999 111v-442l70 -11c46 -7.33301 85 -15.666 117 -24.999s60.333 -20.666 85 -33.999s48 -29.666 70 -48.999c79.333 -69.333 119 -169 119 -299z
M547 847.995v426.002c-70 -6.66699 -124.333 -30.334 -163 -71.001s-58 -91.334 -58 -152.001c0 -58 18.333 -103.333 55 -136c40.667 -36 96 -58.333 166 -67zM920 409.997c0 66 -19.333 116.334 -58 151.001c-23.333 21.333 -48 35.666 -74 42.999s-62.667 14.333 -110 21
v-435c76 8 135.333 31 178 69s64 88.333 64 151z" />
    <glyph glyph-name="percent" unicode="%" horiz-adv-x="1724" 
d="M1606 266c0 -85.333 -27.167 -153.333 -81.5 -204s-122.833 -76 -205.5 -76s-151.167 25.333 -205.5 76s-81.5 118.667 -81.5 204v207c0 56.667 12.5 106.334 37.5 149.001s59.667 75.334 104 98.001s92.833 34 145.5 34s101.167 -11.333 145.5 -34
s79 -55.334 104 -98.001s37.5 -92.334 37.5 -149.001v-207zM1288 1458l-686 -1458h-168l688 1458h166zM692 985c0 -57.333 -12.667 -106.835 -38 -148.502s-59.5 -73.667 -102.5 -96s-91.5 -33.5 -145.5 -33.5c-54.667 0 -103.5 11.167 -146.5 33.5
s-77.167 54.333 -102.5 96s-38 91.167 -38 148.5v207c0 56.667 12.5 106.334 37.5 149.001s59.667 75.334 104 98.001s92.833 34 145.5 34c82 0 150.167 -25.5 204.5 -76.5s81.5 -119.167 81.5 -204.5v-207zM1448 271.998v195c0 48 -10.833 84.5 -32.5 109.5
s-53.834 37.5 -96.501 37.5c-86 0 -129 -49 -129 -147v-195c0 -98 43 -147 129 -147c42.667 0 74.834 12.5 96.501 37.5s32.5 61.5 32.5 109.5zM535 990.998l0.00195312 195c0 48 -10.833 84.5 -32.5 109.5s-53.834 37.5 -96.501 37.5c-86.667 0 -130 -49 -130 -147v-195
c0 -96.667 43.333 -145 130 -145c43.333 0 75.666 12.333 96.999 37s32 60.667 32 108z" />
    <glyph glyph-name="ampersand" unicode="&#x26;" horiz-adv-x="1495" 
d="M1401 0l-268.001 -0.000976562l-119 143c-52.667 -44 -109 -80.833 -169 -110.5s-138.333 -44.5 -235 -44.5c-148.667 0 -264.334 39 -347.001 117s-124 183.667 -124 317c0 63.333 13.333 119.833 40 169.5s59.334 91.834 98.001 126.501s89 73.334 151 116.001
c-47.333 54 -84.5 105 -111.5 153s-40.5 101.333 -40.5 160c0 62 14.667 117.5 44 166.5s71 87.333 125 115s116.667 41.5 188 41.5c68.667 0 129 -14 181 -42s92.5 -66.833 121.5 -116.5s43.5 -105.167 43.5 -166.5c0 -54 -13.5 -101.833 -40.5 -143.5
s-65.5 -79.834 -115.5 -114.501c-1.33301 0 -36.666 -24.667 -105.999 -74l307 -367c27.333 38 46.833 79.5 58.5 124.5s18.167 101.167 19.5 168.5h201c-2 -63.333 -8.5 -121.833 -19.5 -175.5s-27 -103.5 -48 -149.5s-47.167 -87 -78.5 -123zM777.999 1143
c0 40.667 -13.666 75.001 -40.999 103.001s-62 42 -104 42c-44.667 0 -79.834 -13.5 -105.501 -40.5s-38.5 -61.167 -38.5 -102.5c0 -28 8.83301 -56.833 26.5 -86.5s46.5 -67.834 86.5 -114.501c2.66699 1.33301 13 8.16602 31 20.499l39 26.5
c70.667 48.667 106 99.334 106 152.001zM889 291l-345.999 411.001c-40 -26.667 -74.5 -52.834 -103.5 -78.501s-51.833 -54.5 -68.5 -86.5s-25 -69 -25 -111c0 -72 25.167 -131.333 75.5 -178s113.166 -70 188.499 -70c50.667 0 98.5 8.66699 143.5 26
s90.167 46.333 135.5 87z" />
    <glyph glyph-name="quotesingle" unicode="'" horiz-adv-x="526" 
d="M367 1067h-207v391h207v-391z" />
    <glyph glyph-name="parenleft" unicode="(" horiz-adv-x="649" 
d="M530 -51l-141.001 -142l-65 66.5c-22.667 23 -41.667 44 -57 63s-30 40.833 -44 65.5c-19.333 34.667 -32 70.667 -38 108s-9 80.666 -9 129.999v979c0 49.333 3 92.5 9 129.5s18.667 72.833 38 107.5c14 24.667 28.667 46.5 44 65.5s34.333 40.167 57 63.5l65 66
l141 -142l-44.5 -44c-15 -14.667 -27.833 -28.667 -38.5 -42s-21 -29.666 -31 -48.999c-20.667 -38.667 -31 -94.667 -31 -168v-954c0 -73.333 10.333 -129.333 31 -168c10.667 -20 21.834 -37.167 33.501 -51.5s24 -28 37 -41z" />
    <glyph glyph-name="parenright" unicode=")" horiz-adv-x="649" 
d="M475 240c0 -50 -3.33398 -93.665 -10.001 -130.998s-19.667 -73 -39 -107c-26 -46.667 -80.667 -111.667 -164 -195l-143 144l31 31c9.33301 9.33301 19.333 20 30 32s20.667 24.667 30 38s16.333 24.666 21 33.999c20.667 38.667 31 94 31 166v954
c0 72 -10.333 127.333 -31 166c-13.333 26 -28.666 48.667 -45.999 68s-39.333 41.666 -66 66.999l143 144c83.333 -83.333 138 -148.333 164 -195c19.333 -34 32.333 -69.5 39 -106.5s10 -80.5 10 -130.5v-979z" />
    <glyph glyph-name="asterisk" unicode="*" horiz-adv-x="993" 
d="M868 954l-75 -133l-228 142l8 -269h-153l8 269l-227 -142l-76 133l235 125l-235 127l76 133l227 -141l-8 266h153l-8 -266l228 141l75 -133l-235 -127z" />
    <glyph glyph-name="plus" unicode="+" horiz-adv-x="1092" 
d="M987 461h-344v-344h-194v344h-345v194h345v342h194v-342h344v-194z" />
    <glyph glyph-name="comma" unicode="," horiz-adv-x="557" 
d="M397 -123l-237 -194v555h237v-361z" />
    <glyph glyph-name="hyphen" unicode="-" horiz-adv-x="872" 
d="M735 471h-598v195h598v-195z" />
    <glyph glyph-name="period" unicode="." horiz-adv-x="582" 
d="M440 143c0 -27.333 -6.66797 -52.333 -20.001 -75s-31.333 -40.667 -54 -54s-47.667 -20 -75 -20c-40 0 -75 14.667 -105 44s-45 64.333 -45 105s14.833 75.5 44.5 104.5s64.834 43.5 105.501 43.5c41.333 0 76.5 -14.5 105.5 -43.5s43.5 -63.833 43.5 -104.5z" />
    <glyph glyph-name="slash" unicode="/" horiz-adv-x="778" 
d="M784 1610l-583 -1762h-201l584 1762h200z" />
    <glyph glyph-name="zero" unicode="0" horiz-adv-x="1094" 
d="M969 406c0 -84.667 -18.6729 -158.5 -56.0059 -221.5s-88.166 -111.5 -152.499 -145.5s-135.5 -51 -213.5 -51s-149.167 17 -213.5 51s-115.166 82.667 -152.499 146s-56 137 -56 221v411c0 64 10.833 121.833 32.5 173.5s52.334 96 92.001 133
s84.834 64.833 135.501 83.5s104.667 28 162 28s111.833 -9.5 163.5 -28.5s96.834 -46.833 135.501 -83.5s68.834 -81 90.501 -133s32.5 -109.667 32.5 -173v-411zM759.994 412v399c0 46 -8.5 87.167 -25.5 123.5s-42 64.5 -75 84.5s-70.5 30 -112.5 30
s-79.5 -10 -112.5 -30s-58 -48.167 -75 -84.5s-25.5 -77.5 -25.5 -123.5v-399c0 -71.333 19 -128.833 57 -172.5s90 -65.5 156 -65.5s118 21.833 156 65.5s57 101.167 57 172.5z" />
    <glyph glyph-name="one" unicode="1" horiz-adv-x="834" 
d="M602 0h-209v995l-287 -250v232l287 246h209v-1223z" />
    <glyph glyph-name="two" unicode="2" horiz-adv-x="1081" 
d="M965 0h-879v186l496 451c94 85.333 141 168 141 248c0 59.333 -19.667 108.333 -59 147s-90 58 -152 58c-59.333 0 -110 -19.5 -152 -58.5s-63 -91.5 -63 -157.5h-209c0 78 18.5 147.667 55.5 209s88 108.833 153 142.5s136.833 50.5 215.5 50.5
c62 0 118.5 -9.33301 169.5 -28s95.167 -45.167 132.5 -79.5s66.333 -75.833 87 -124.5s31 -101 31 -157c0 -70 -18.5 -133 -55.5 -189s-93.5 -120 -169.5 -192l-338 -320h596v-186z" />
    <glyph glyph-name="three" unicode="3" horiz-adv-x="1077" 
d="M967 174c0 -90 -19.6689 -166.828 -59.002 -230.495s-93.166 -111.834 -161.499 -144.501s-143.833 -49 -226.5 -49c-58 0 -113.833 8.16699 -167.5 24.5s-101.167 41.333 -142.5 75s-74.166 76.667 -98.499 129s-37.5 112.166 -39.5 179.499h209
c2.66699 -50 15 -91.5 37 -124.5s50.667 -57.333 86 -73s74 -23.5 116 -23.5c44.667 0 85.334 9.66699 122.001 29s65.167 47.166 85.5 83.499s30.5 79.166 30.5 128.499s-9 92 -27 128s-45.5 63.667 -82.5 83s-82.5 29 -136.5 29h-35v182h35
c73.333 0 128.5 19.833 165.5 59.5s55.5 94.167 55.5 163.5c0 36.667 -5.66699 69.5 -17 98.5s-26.333 52.5 -45 70.5s-41.5 32 -68.5 42s-55.167 15 -84.5 15c-63.333 0 -114.333 -18.5 -153 -55.5s-60.667 -88.167 -66 -153.5h-209c4 80 25.167 150 63.5 210
s89.166 105.833 152.499 137.5s134 47.5 212 47.5c82.667 0 156.167 -17.333 220.5 -52s114.333 -82.834 150 -144.501s53.5 -132.167 53.5 -211.5c0 -148.667 -60 -252.334 -180 -311.001c65.333 -28 115.833 -70.167 151.5 -126.5s53.5 -128.166 53.5 -215.499z" />
    <glyph glyph-name="four" unicode="4" horiz-adv-x="1159" 
d="M1077 61h-174v-313h-201v313h-624v195l518 1044h223l-518 -1044h401v360h201v-360h174v-195z" />
    <glyph glyph-name="five" unicode="5" horiz-adv-x="1096" 
d="M977 252c0 -88.667 -8.33105 -163.333 -24.998 -224s-49.334 -115 -98.001 -163c-76.667 -76.667 -179 -115 -307 -115c-66.667 0 -126.334 10.333 -179.001 31s-96 48 -130 82c-66 66 -103.667 158.667 -113 278h209c16.667 -134.667 87.667 -202 213 -202
c65.333 0 116.333 19 153 57c19.333 18.667 34 41.667 44 69s16.5 56.166 19.5 86.499s4.5 63.833 4.5 100.5c0 96 -15.5 170.833 -46.5 224.5s-85.833 80.5 -164.5 80.5c-56.667 0 -102.334 -11.833 -137.001 -35.5s-58.667 -55.5 -72 -95.5h-188v797h784v-187h-596v-385
c26 26.667 59.333 47.334 100 62.001s87.334 22 140.001 22c112 0 199.333 -31.333 262 -94c50 -49.333 83.667 -106 101 -170s26 -137 26 -219z" />
    <glyph glyph-name="six" unicode="6" horiz-adv-x="1102" 
d="M1008 457c0 -92.667 -19.333 -174.832 -58 -246.499s-92.667 -126.667 -162 -165s-148.333 -57.5 -237 -57.5c-136 0 -246.167 41.167 -330.5 123.5s-126.5 193.833 -126.5 334.5c0 72 10.167 140.833 30.5 206.5s51.833 136.167 94.5 211.5l350 627h224l-359 -621
c44 23.333 100 35 168 35c76.667 0 146 -18.333 208 -55s110.5 -88.834 145.5 -156.501s52.5 -146.5 52.5 -236.5zM799 451.002c0 53.333 -9.83594 101.5 -29.5029 144.5s-48.334 77 -86.001 102s-81.834 37.5 -132.501 37.5c-49.333 0 -92.666 -11.5 -129.999 -34.5
s-66.333 -56.167 -87 -99.5s-31 -93.333 -31 -150c0 -57.333 10.333 -107.333 31 -150s49.834 -75.5 87.501 -98.5s80.834 -34.5 129.501 -34.5s91.834 11.5 129.501 34.5s66.834 55.833 87.501 98.5s31 92.667 31 150z" />
    <glyph glyph-name="seven" unicode="7" horiz-adv-x="1081" 
d="M1010 1036l-566 -1282h-223l565 1282h-493v-229h-201v416h918v-187z" />
    <glyph glyph-name="eight" unicode="8" horiz-adv-x="1124" 
d="M1012 412c0 -85.333 -19.9971 -160.33 -59.9971 -224.997s-94.333 -114 -163 -148s-144.667 -51 -228 -51c-82.667 0 -158.334 17 -227.001 51s-122.667 83.333 -162 148s-59 139.667 -59 225c0 79.333 18.667 147.166 56 203.499s85.333 102.5 144 138.5
c-32.667 20 -62.334 44.5 -89.001 73.5s-48.167 63.667 -64.5 104s-24.5 85.5 -24.5 135.5c0 59.333 11 114.166 33 164.499s52.833 93.333 92.5 129s85 62.834 136 81.501s105.833 28 164.5 28c59.333 0 114.666 -9.33301 165.999 -28s96.666 -45.834 135.999 -81.501
s69.833 -78.667 91.5 -129s32.5 -105.166 32.5 -164.499c0 -72.667 -16.167 -134.834 -48.5 -186.501s-74.833 -93.834 -127.5 -126.501c58.667 -35.333 106.834 -81.333 144.501 -138s56.5 -124.667 56.5 -204zM778.003 1061c0 64 -20.333 117.167 -61 159.5
s-92.667 63.5 -156 63.5s-115.333 -21.333 -156 -64s-61 -95.667 -61 -159c0 -64 20.167 -116.833 60.5 -158.5s92.5 -62.5 156.5 -62.5s116.167 20.5 156.5 61.5s60.5 94.167 60.5 159.5zM803.003 416.003c0 43.333 -10.666 83.666 -31.999 120.999s-50.5 67 -87.5 89
s-77.833 33 -122.5 33c-67.333 0 -124 -23.667 -170 -71s-69 -104.666 -69 -171.999c0 -46 10.5 -87.167 31.5 -123.5s50.167 -65.166 87.5 -86.499s77.333 -32 120 -32c44 0 84.667 10.667 122 32s66.666 50.666 87.999 87.999s32 78 32 122z" />
    <glyph glyph-name="nine" unicode="9" horiz-adv-x="1102" 
d="M1008 776c0 -70 -9.66895 -137.834 -29.002 -203.501s-50.666 -137.167 -93.999 -214.5l-353 -626h-223l359 620c-46.667 -23.333 -102 -35 -166 -35c-56 0 -109.167 10.333 -159.5 31s-94.333 51.167 -132 91.5s-66.5 87.833 -86.5 142.5s-30 116 -30 184
c0 92.667 19.333 174.834 58 246.501s92.667 126.667 162 165s148.333 57.5 237 57.5s167.834 -18.333 237.501 -55s123.667 -90 162 -160s57.5 -151.333 57.5 -244zM798.998 771.999c0 56.667 -10.3281 106.5 -30.9951 149.5s-49.834 76 -87.501 99
s-80.834 34.5 -129.501 34.5s-91.834 -11.5 -129.501 -34.5s-66.834 -56 -87.501 -99s-31 -92.833 -31 -149.5c0 -82 22.333 -150 67 -204s105 -81 181 -81c49.333 0 92.666 11.667 129.999 35s66.333 56.5 87 99.5s31 93.167 31 150.5z" />
    <glyph glyph-name="colon" unicode=":" horiz-adv-x="635" 
d="M492 711c0 -40.667 -14.5 -75.833 -43.5 -105.5s-63.833 -44.5 -104.5 -44.5s-75.667 15 -105 45s-44 65 -44 105c0 27.333 6.66699 52.333 20 75s31.333 40.667 54 54s47.667 20 75 20c40.667 0 75.5 -14.5 104.5 -43.5s43.5 -64.167 43.5 -105.5zM492 143.001
c0 -41.333 -14.5 -76.5 -43.5 -105.5s-63.833 -43.5 -104.5 -43.5c-27.333 0 -52.333 6.66699 -75 20s-40.667 31.333 -54 54s-20 47.667 -20 75c0 40.667 14.5 75.5 43.5 104.5s64.167 43.5 105.5 43.5s76.333 -14.333 105 -43s43 -63.667 43 -105z" />
    <glyph glyph-name="semicolon" unicode=";" horiz-adv-x="621" 
d="M492 711c0 -40.667 -14.5 -75.833 -43.5 -105.5s-63.833 -44.5 -104.5 -44.5s-75.667 15 -105 45s-44 65 -44 105c0 27.333 6.66699 52.333 20 75s31.333 40.667 54 54s47.667 20 75 20c40.667 0 75.5 -14.5 104.5 -43.5s43.5 -64.167 43.5 -105.5zM463 -122.999
l-238 -194v555h238v-361z" />
    <glyph glyph-name="less" unicode="&#x3c;" horiz-adv-x="2103" 
d="M1853 428l-800 -803l-803 803v266l702 -706v1525h199v-1525l702 706v-266z" />
    <glyph glyph-name="equal" unicode="=" horiz-adv-x="1092" 
d="M987 670h-883v194h883v-194zM987 272h-883v195h883v-195z" />
    <glyph glyph-name="greater" unicode="&#x3e;" horiz-adv-x="2103" 
d="M1855 444l-704 707v-1526h-197v1526l-704 -707v267l803 802l802 -802v-267z" />
    <glyph glyph-name="question" unicode="?" horiz-adv-x="1047" 
d="M963 1079c0 -45.333 -8.50195 -87.8389 -25.502 -127.506s-41.5 -81.167 -73.5 -124.5l-157 -221c-12 -16 -21.167 -34.5 -27.5 -55.5s-9.5 -39.167 -9.5 -54.5v-62h-209v72c0 40.667 5 75.834 15 105.501s28 62.167 54 97.5l160 215
c42.667 56.667 64 108.334 64 155.001c0 58.667 -18.667 107.5 -56 146.5s-85.666 58.5 -144.999 58.5c-40 0 -75.167 -9.16699 -105.5 -27.5s-53.5 -43.666 -69.5 -75.999s-24 -66.833 -24 -103.5h-209c0 57.333 10 110 30 158s49 89.833 87 125.5
s81.667 62.834 131 81.501s102.666 28 159.999 28s110.833 -9.16699 160.5 -27.5s92.834 -44.166 129.501 -77.499s65.834 -74.666 87.501 -123.999s32.5 -103.333 32.5 -162zM695.998 126.994c0 -36.667 -13 -68 -39 -94s-57.333 -39 -94 -39
c-37.333 0 -68.5 12.833 -93.5 38.5s-37.5 57.167 -37.5 94.5s12.5 68.833 37.5 94.5s56.167 38.5 93.5 38.5c36.667 0 68 -13 94 -39s39 -57.333 39 -94z" />
    <glyph glyph-name="at" unicode="@" horiz-adv-x="1507" 
d="M1376 -4l-195.998 3.99902v102c-34 -39.333 -71.5 -68.5 -112.5 -87.5s-90.167 -28.5 -147.5 -28.5c-110.667 0 -200.334 38 -269.001 114c-20 23.333 -35.667 47.166 -47 71.499s-20.5 53 -27.5 86s-11.667 65.833 -14 98.5s-3.5 73.667 -3.5 123
c0 94.667 6 170.834 18 228.501s35.333 107.167 70 148.5c30 36 68.5 64.5 115.5 85.5s98.833 31.5 155.5 31.5c105.333 0 191.333 -38.333 258 -115v125c0 49.333 -5.66699 91.5 -17 126.5s-31 66.5 -59 94.5c-50.667 50.667 -123 76 -217 76h-258
c-93.333 0 -165 -25.333 -215 -76c-30 -28.667 -50.167 -60 -60.5 -94s-15.5 -76.333 -15.5 -127v-639c0 -56 7 -99.5 21 -130.5s41 -62.5 81 -94.5l-143 -144c-44 36.667 -76.833 70 -98.5 100s-37.667 66 -48 108s-15.5 92.333 -15.5 151v651
c0 156 40.333 275.333 121 358c80 80.667 197.333 121 352 121h299c153.333 0 270 -40.333 350 -121c43.333 -43.333 74.666 -94.166 93.999 -152.499s29 -126.833 29 -205.5v-989zM1176 478.999c0 64.667 -5.66895 120.001 -17.002 166.001s-32.666 82.833 -63.999 110.5
s-74 41.5 -128 41.5c-80 0 -134.5 -27.833 -163.5 -83.5s-43.5 -133.834 -43.5 -234.501c0 -64 5.5 -119 16.5 -165s31.833 -82.5 62.5 -109.5s73.334 -40.5 128.001 -40.5c79.333 0 134 27.5 164 82.5s45 132.5 45 232.5z" />
    <glyph glyph-name="A" unicode="A" horiz-adv-x="1280" 
d="M1264 0h-236l-100 293h-576l-100 -293h-236l535 1458h178zM866 481l-221 647l-227 -647h448z" />
    <glyph glyph-name="B" unicode="B" horiz-adv-x="1358" 
d="M1221 412c0 -88 -18.5 -162.833 -55.5 -224.5s-89 -108.334 -156 -140.001s-143.5 -47.5 -229.5 -47.5h-590v1458h568c88 0 165.5 -16.167 232.5 -48.5s118.333 -78.666 154 -138.999s53.5 -130.833 53.5 -211.5c0 -50 -9.16699 -96.167 -27.5 -138.5
s-42.5 -78 -72.5 -107s-62.333 -50.167 -97 -63.5c62.667 -24 115 -65 157 -123s63 -129.667 63 -215zM977 1051c0 43.333 -9.83203 80.833 -29.499 112.5s-47.334 55.667 -83.001 72s-77.5 24.5 -125.5 24.5h-327v-418h327c73.333 0 131.333 18.333 174 55s64 88 64 154z
M999.001 422c0 44.667 -9.33398 83.332 -28.001 115.999s-46.167 58.334 -82.5 77.001s-79.166 28 -128.499 28h-348v-444h348c50 0 93 9.5 129 28.5s63.333 45.167 82 78.5s28 72 28 116z" />
    <glyph glyph-name="C" unicode="C" horiz-adv-x="1176" 
d="M1069 160c-35.333 -35.333 -73.333 -66.168 -114 -92.501s-84.667 -46.166 -132 -59.499s-101 -20 -161 -20c-50.667 0 -98.5 5.83301 -143.5 17.5s-88.167 29.5 -129.5 53.5s-78 52 -110 84c-45.333 46.667 -78 96.334 -98 149.001s-32.333 109.834 -37 171.501
s-7 150.167 -7 265.5c0 88.667 1.16699 159 3.5 211s7.66602 99.667 15.999 143s22 83.833 41 121.5s46.167 74.5 81.5 110.5c50.667 50.667 108.334 89.167 173.001 115.5s134.667 39.5 210 39.5c87.333 0 162.5 -14.167 225.5 -42.5s123.5 -71.5 181.5 -129.5l-147 -149
c-43.333 43.333 -83.666 74.666 -120.999 93.999s-83.666 29 -138.999 29c-42.667 0 -82.834 -7.66699 -120.501 -23s-69.5 -37 -95.5 -65c-19.333 -21.333 -34 -42.333 -44 -63s-18.333 -48.167 -25 -82.5s-11.167 -75 -13.5 -122s-3.5 -109.5 -3.5 -187.5
c0 -146 5.5 -248.5 16.5 -307.5s34.167 -108.167 69.5 -147.5c26 -27.333 57.833 -48.833 95.5 -64.5s77.834 -23.5 120.501 -23.5c55.333 0 101.666 9.66699 138.999 29s77.666 50.666 120.999 93.999z" />
    <glyph glyph-name="D" unicode="D" horiz-adv-x="1364" 
d="M1227 739v-72.998c0 -78.667 -3 -147.334 -9 -206.001s-19.833 -116.334 -41.5 -173.001s-54.167 -106.667 -97.5 -150c-91.333 -91.333 -217 -137 -377 -137h-512v1458h512c160 0 285.667 -45.667 377 -137c43.333 -43.333 75.833 -92 97.5 -146s35.5 -109 41.5 -165
s9 -121.667 9 -197v-74zM1006 739.002c0 84 -1.33301 148.833 -4 194.5s-9.83398 88.5 -21.501 128.5s-29.167 73 -52.5 99c-60 66 -142.667 99 -248 99h-268v-1061h268c106 0 188.667 32.667 248 98c34.667 38 56.334 89.667 65.001 155s13 161 13 287z" />
    <glyph glyph-name="E" unicode="E" horiz-adv-x="1235" 
d="M1122 0h-932v1458h932v-198h-710v-426h606v-197h-606v-438h710v-199z" />
    <glyph glyph-name="F" unicode="F" horiz-adv-x="1198" 
d="M1122 1260h-710v-445h606v-199h-606v-616h-222v1458h932v-198z" />
    <glyph glyph-name="G" unicode="G" horiz-adv-x="1313" 
d="M1188 569c0 -97.333 -9.83105 -178.002 -29.498 -242.002s-52.834 -121 -99.501 -171c-34 -36 -71.333 -66.5 -112 -91.5s-85.667 -44 -135 -57s-99.333 -19.5 -150 -19.5s-98.5 5.83301 -143.5 17.5s-88.167 29.5 -129.5 53.5s-78 52 -110 84
c-45.333 46.667 -78 96.334 -98 149.001s-32.333 109.834 -37 171.501s-7 150.167 -7 265.5c0 88.667 1.16699 159 3.5 211s7.66602 99.667 15.999 143s22 83.833 41 121.5s46.167 74.5 81.5 110.5c103.333 103.333 231 155 383 155c64.667 0 122 -6.83301 172 -20.5
s96 -34.5 138 -62.5s85.333 -64.333 130 -109l-150 -150c-50.667 51.333 -96.5 88.166 -137.5 110.499s-91.833 33.5 -152.5 33.5c-42 0 -82.5 -8.16699 -121.5 -24.5s-71.167 -38.166 -96.5 -65.499c-35.333 -39.333 -58.5 -88.333 -69.5 -147s-16.5 -160.667 -16.5 -306
c0 -146 5.5 -248.5 16.5 -307.5s34.167 -108.167 69.5 -147.5c55.333 -58.667 128 -88 218 -88c96 0 173.667 34.333 233 103c48 53.333 72 130.333 72 231v80h-305v188h526v-219z" />
    <glyph glyph-name="H" unicode="H" horiz-adv-x="1415" 
d="M1225 0h-221v637h-592v-637h-222v1458h222v-622h592v622h221v-1458z" />
    <glyph glyph-name="I" unicode="I" horiz-adv-x="602" 
d="M412 0h-222v1458h222v-1458z" />
    <glyph glyph-name="J" unicode="J" horiz-adv-x="1036" 
d="M866 461c0 -98.667 -21.501 -183.501 -64.501 -254.501s-101.5 -125.167 -175.5 -162.5s-155.667 -56 -245 -56c-48 0 -93.167 4.83301 -135.5 14.5s-81 24.834 -116 45.501s-69.167 47.667 -102.5 81l147 145c31.333 -30 61.333 -52.167 90 -66.5
s67.667 -21.5 117 -21.5c54.667 0 101.834 11.167 141.501 33.5s70 55.333 91 99s31.5 96.5 31.5 158.5v981h221v-997z" />
    <glyph glyph-name="K" unicode="K" horiz-adv-x="1348" 
d="M1327 0h-260l-410 719l-245 -295v-424h-222v1458h222v-733l596 733h270l-473 -571z" />
    <glyph glyph-name="L" unicode="L" horiz-adv-x="1176" 
d="M1114 0h-924v1458h222v-1259h702v-199z" />
    <glyph glyph-name="M" unicode="M" horiz-adv-x="1665" 
d="M1477 0h-222v975l-335 -711h-164l-344 711v-975h-222v1458h222l426 -907l417 907h222v-1458z" />
    <glyph glyph-name="N" unicode="N" horiz-adv-x="1479" 
d="M1288 0h-203l-673 1026v-1026h-222v1458h203l674 -1024v1024h221v-1458z" />
    <glyph glyph-name="O" unicode="O" horiz-adv-x="1323" 
d="M1186 729c0 -115.333 -2.16699 -203.503 -6.5 -264.503s-16.5 -118.333 -36.5 -172s-52 -103.5 -96 -149.5c-104.667 -103.333 -233 -155 -385 -155s-279.667 51.667 -383 155c-45.333 46.667 -78 96.334 -98 149.001s-32.333 109.834 -37 171.501s-7 150.167 -7 265.5
c0 88.667 1.16699 159 3.5 211s7.66602 99.667 15.999 143s22 83.833 41 121.5s46.167 74.5 81.5 110.5c103.333 103.333 231 155 383 155s280.333 -51.667 385 -155c44.667 -46.667 76.834 -96.5 96.501 -149.5s31.667 -110.167 36 -171.5s6.5 -149.666 6.5 -264.999z
M965 728.997c0 145.333 -5.49902 247.667 -16.499 307s-34.167 108 -69.5 146c-25.333 27.333 -57.5 49.166 -96.5 65.499s-79.167 24.5 -120.5 24.5c-42 0 -82.5 -8.16699 -121.5 -24.5s-71.167 -38.166 -96.5 -65.499c-35.333 -39.333 -58.5 -88.333 -69.5 -147
s-16.5 -160.667 -16.5 -306c0 -77.333 1.16699 -139.166 3.5 -185.499s6.83301 -86.833 13.5 -121.5s14.667 -61.667 24 -81s24.333 -41 45 -65c26.667 -28 59.167 -50 97.5 -66s78.5 -24 120.5 -24c88 0 160.333 30 217 90c24 26 42.167 55.667 54.5 89
s20.666 78.666 24.999 135.999s6.5 133.333 6.5 228z" />
    <glyph glyph-name="P" unicode="P" horiz-adv-x="1288" 
d="M1210 1016c0 -84.667 -19 -160.5 -57 -227.5s-92.667 -119.667 -164 -158s-153.333 -57.5 -246 -57.5h-331v-573h-222v1458h553c68.667 0 132.667 -11.167 192 -33.5s109.333 -53.333 150 -93s71.667 -86 93 -139s32 -111.833 32 -176.5zM989 1016
c0 76 -23.501 135.667 -70.501 179s-109.5 65 -187.5 65h-319v-486h319c78.667 0 141.334 21.5 188.001 64.5s70 102.167 70 177.5z" />
    <glyph glyph-name="Q" unicode="Q" horiz-adv-x="1323" 
d="M1235 57l-123 -123.003l-145 146c-86 -61.333 -187.667 -92 -305 -92c-152 0 -279.667 51.667 -383 155c-45.333 46.667 -78 96.334 -98 149.001s-32.333 109.834 -37 171.501s-7 150.167 -7 265.5c0 88.667 1.16699 159 3.5 211s7.66602 99.667 15.999 143
s22 83.833 41 121.5s46.167 74.5 81.5 110.5c103.333 103.333 231 155 383 155s280.333 -51.667 385 -155c44.667 -46.667 76.834 -96.5 96.501 -149.5s31.667 -110.167 36 -171.5s6.5 -149.666 6.5 -264.999c0 -102.667 -1.5 -181.5 -4.5 -236.5
s-11.167 -107.333 -24.5 -157s-35 -95.167 -65 -136.5zM965 728.997c0 145.333 -5.50098 247.666 -16.501 306.999s-34.167 108 -69.5 146c-25.333 27.333 -57.5 49.166 -96.5 65.499s-79.167 24.5 -120.5 24.5c-42 0 -82.5 -8.16699 -121.5 -24.5
s-71.167 -38.166 -96.5 -65.499c-35.333 -39.333 -58.5 -88.333 -69.5 -147s-16.5 -160.667 -16.5 -306c0 -77.333 1.16699 -139.166 3.5 -185.499s6.83301 -86.833 13.5 -121.5s14.667 -61.667 24 -81s24.333 -41 45 -65c26.667 -28 59.167 -50 97.5 -66
s78.5 -24 120.5 -24c54.667 0 104.334 15.667 149.001 47l-154 154l123 123l142 -141c17.333 36 28.833 80.5 34.5 133.5s8.5 128.5 8.5 226.5z" />
    <glyph glyph-name="R" unicode="R" horiz-adv-x="1341" 
d="M1253 0l-258 -0.000976562l-307 614h-276v-614h-222v1458h566c89.333 0 168.5 -18.167 237.5 -54.5s122 -86.666 159 -150.999s55.5 -137.833 55.5 -220.5c0 -100 -26.833 -183.5 -80.5 -250.5s-123.5 -112.5 -209.5 -136.5zM987 1030c0 71.333 -22.5 127.5 -67.5 168.5
s-105.167 61.5 -180.5 61.5h-327v-457h327c74.667 0 134.667 20.333 180 61s68 96 68 166z" />
    <glyph glyph-name="S" unicode="S" horiz-adv-x="1208" 
d="M1102 416c0 -64.667 -12.666 -123.839 -37.999 -177.506s-61.833 -99.334 -109.5 -137.001s-103.167 -66 -166.5 -85s-133.333 -28.5 -210 -28.5c-111.333 0 -208.166 14.833 -290.499 44.5s-157.833 78.834 -226.5 147.501l148 146
c32.667 -33.333 68.5 -60.666 107.5 -81.999s80.5 -36.333 124.5 -45s91 -13 141 -13c94 0 167.667 19.667 221 59s80 94.333 80 165c0 66 -19.333 116.333 -58 151c-17.333 17.333 -37.5 30.5 -60.5 39.5s-55.833 16.5 -98.5 22.5l-172 24
c-118.667 16.667 -211 55.667 -277 117c-70.667 66 -106 158.667 -106 278c0 84.667 19.667 159.334 59 224.001s95.666 114.834 168.999 150.501s159.666 53.5 258.999 53.5c98 0 182.667 -13.167 254 -39.5s137.666 -68.166 198.999 -125.499l-142 -140
c-29.333 28.667 -60.666 51.167 -93.999 67.5s-68 28 -104 35s-75.667 10.5 -119 10.5c-55.333 0 -103 -9.66699 -143 -29s-70.5 -46.166 -91.5 -80.499s-31.5 -73.5 -31.5 -117.5c0 -58 18.333 -103.333 55 -136c18 -15.333 41.667 -29.166 71 -41.499
s60.333 -20.833 93 -25.5l166 -25c66.667 -10 121.167 -23.5 163.5 -40.5s78.5 -39.5 108.5 -67.5c79.333 -69.333 119 -169 119 -299z" />
    <glyph glyph-name="T" unicode="T" horiz-adv-x="1147" 
d="M1085 1260h-401v-1260h-221v1260h-402v198h1024v-198z" />
    <glyph glyph-name="U" unicode="U" horiz-adv-x="1382" 
d="M1214 492c0 -98.667 -22.6689 -186.333 -68.002 -263s-107.833 -136 -187.5 -178s-169.167 -63 -268.5 -63c-98.667 0 -187.667 21 -267 63s-141.666 101.333 -186.999 178s-68 164.334 -68 263.001v966h221v-956c0 -64 12.333 -119.833 37 -167.5
s59.667 -84.334 105 -110.001s98.333 -38.5 159 -38.5s113.834 12.833 159.501 38.5s81 62.167 106 109.5s37.5 103.333 37.5 168v956h221v-966z" />
    <glyph glyph-name="V" unicode="V" horiz-adv-x="1155" 
d="M1145 1458l-483 -1458h-173l-479 1458h230l335 -1061l336 1061h234z" />
    <glyph glyph-name="W" unicode="W" horiz-adv-x="1784" 
d="M1761 1458l-381 -1458h-192l-297 1022l-295 -1022h-193l-380 1458h233l254 -1042l293 1042h178l293 -1042l254 1042h233z" />
    <glyph glyph-name="X" unicode="X" horiz-adv-x="1184" 
d="M1163 0h-256l-317 559l-316 -559h-254l451 748l-422 710h254l287 -522l289 522h254l-422 -710z" />
    <glyph glyph-name="Y" unicode="Y" horiz-adv-x="1114" 
d="M1104 1458l-436 -858v-600h-222v600l-436 858h242l305 -641l305 641h242z" />
    <glyph glyph-name="Z" unicode="Z" horiz-adv-x="1130" 
d="M1032 0h-934v190l674 1070h-645v198h905v-180l-678 -1079h678v-199z" />
    <glyph glyph-name="bracketleft" unicode="[" horiz-adv-x="711" 
d="M623 -152h-447v1762h447v-187h-238v-1388h238v-187z" />
    <glyph glyph-name="backslash" unicode="\" horiz-adv-x="778" 
d="M778 -152h-200l-578 1745h201z" />
    <glyph glyph-name="bracketright" unicode="]" horiz-adv-x="711" 
d="M535 -152h-447v185h242v1392h-242v185h447v-1762z" />
    <glyph glyph-name="asciicircum" unicode="^" horiz-adv-x="1169" 
d="M1030 821h-217l-229 424l-230 -424h-217l352 652h191z" />
    <glyph glyph-name="underscore" unicode="_" horiz-adv-x="1169" 
d="M1169 -352h-1169v143h1169v-143z" />
    <glyph glyph-name="grave" unicode="`" 
d="M618 1227h-157l-228 332h232z" />
    <glyph glyph-name="a" unicode="a" horiz-adv-x="1085" 
d="M930 0h-205.003v94c-38 -38 -77.667 -65.167 -119 -81.5s-93.666 -24.5 -156.999 -24.5c-62.667 0 -117 7.83301 -163 23.5s-84.667 39.167 -116 70.5c-54.667 56.667 -82 131 -82 223c0 59.333 13.667 111.5 41 156.5s67.833 80 121.5 105s118.834 37.5 195.501 37.5
h275v74c0 66.667 -18 115.667 -54 147s-93.667 47 -173 47c-58 0 -103.167 -7.33301 -135.5 -22s-63.166 -40.667 -92.499 -78l-137 129c47.333 56 99.333 95 156 117s129 33 217 33c285.333 0 428 -119 428 -357v-694zM720.997 375l0.000976562 84h-244
c-60.667 0 -106.834 -13 -138.501 -39s-47.5 -63 -47.5 -111c0 -98 63.333 -147 190 -147c44.667 0 82 3.83301 112 11.5s57.667 23.5 83 47.5c30 30 45 81.333 45 154z" />
    <glyph glyph-name="b" unicode="b" horiz-adv-x="1133" 
d="M1016 520c0 -65.333 -2.66602 -123.334 -7.99902 -174.001s-16.833 -99.667 -34.5 -147s-42.5 -87 -74.5 -119c-28 -28 -64.333 -50.333 -109 -67s-93 -25 -145 -25c-58.667 0 -109.5 9 -152.5 27s-83.5 50 -121.5 96v-111h-205v1458h209v-524
c36 42.667 75.833 72.834 119.5 90.501s94.5 26.5 152.5 26.5c51.333 0 99.166 -8.33301 143.499 -25s80.5 -39.334 108.5 -68.001c32 -32 56.833 -71.5 74.5 -118.5s29.167 -95.667 34.5 -146s8 -108.166 8 -173.499zM807.001 519.999
c0 70.667 -5.33105 130.833 -15.998 180.5s-31.834 89.334 -63.501 119.001s-76.834 44.5 -135.501 44.5c-59.333 0 -105 -15 -137 -45s-53.333 -69.667 -64 -119s-16 -109.333 -16 -180s5.33301 -130.834 16 -180.501s32 -89.667 64 -120s77.667 -45.5 137 -45.5
c85.333 0 142.5 30.5 171.5 91.5s43.5 145.833 43.5 254.5z" />
    <glyph glyph-name="c" unicode="c" horiz-adv-x="993" 
d="M918 135c-31.333 -33.333 -64.667 -61.165 -100 -83.498s-72.666 -38.5 -111.999 -48.5s-83 -15 -131 -15c-81.333 0 -157.166 18 -227.499 54s-127 94 -170 174s-64.5 181.333 -64.5 304c0 94 12.667 175 38 243s59.666 123.333 102.999 166s92.666 73.667 147.999 93
s113 29 173 29c73.333 0 136.833 -11.333 190.5 -34s104.5 -60 152.5 -112l-144 -139c-32 36 -62.667 61.333 -92 76s-65 22 -107 22c-81.333 0 -145.333 -30.667 -192 -92c-22.667 -28.667 -38.5 -62.334 -47.5 -101.001s-13.5 -89 -13.5 -151
c0 -116.667 20.333 -201.334 61 -254.001c46.667 -61.333 110.667 -92 192 -92c40.667 0 76 7.5 106 22.5s61 40.167 93 75.5z" />
    <glyph glyph-name="d" unicode="d" horiz-adv-x="1133" 
d="M967 0h-205.004v111c-26 -32 -52.667 -56.667 -80 -74s-56.666 -29.833 -87.999 -37.5s-67 -11.5 -107 -11.5c-51.333 0 -99.166 8.33301 -143.499 25s-81.166 39 -110.499 67c-32.667 32.667 -57.5 72.5 -74.5 119.5s-28.167 95.833 -33.5 146.5s-8 108.667 -8 174
s2.66699 123.166 8 173.499s16.5 98.833 33.5 145.5s41.833 86.334 74.5 119.001c29.333 29.333 66 52.166 110 68.499s91.333 24.5 142 24.5c58 0 108.833 -8.66699 152.5 -26s83.834 -47.666 120.501 -90.999v524h209v-1458zM757.996 520
c0 70.667 -5.33105 130.833 -15.998 180.5s-31.834 89.334 -63.501 119.001s-76.834 44.5 -135.501 44.5c-59.333 0 -105 -15 -137 -45s-53.333 -69.667 -64 -119s-16 -109.333 -16 -180s5.33301 -130.834 16 -180.501s32 -89.667 64 -120s77.667 -45.5 137 -45.5
c85.333 0 142.5 30.5 171.5 91.5s43.5 145.833 43.5 254.5z" />
    <glyph glyph-name="e" unicode="e" horiz-adv-x="1104" 
d="M993 459l-674.001 0.00195312c0 -60.667 10.333 -112.5 31 -155.5s50.5 -76.333 89.5 -100s87.167 -35.5 144.5 -35.5s103.666 8 138.999 24s73 43.333 113 82l133 -124c-56.667 -56.667 -114 -97.834 -172 -123.501s-130.333 -38.5 -217 -38.5
c-66.667 0 -128.5 9.66699 -185.5 29s-106.5 50 -148.5 92s-74.667 97 -98 165s-35 150 -35 246c0 111.333 18.167 206.666 54.5 285.999s87.5 140 153.5 182s143.333 63 232 63c90.667 0 169.334 -21 236.001 -63s117.334 -100.833 152.001 -176.5s52 -162.5 52 -260.5v-92
zM785.999 604.002c-2 54 -11.332 100.999 -27.999 140.999s-42.834 72 -78.501 96s-77.834 36 -126.501 36c-48 0 -90.167 -12 -126.5 -36s-63.166 -56 -80.499 -96c-9.33301 -21.333 -15.5 -40.166 -18.5 -56.499s-5.83301 -44.5 -8.5 -84.5h467z" />
    <glyph glyph-name="f" unicode="f" horiz-adv-x="672" 
d="M614 860h-206v-860h-209v860h-119v160h119v160c0 51.333 10.5 99 31.5 143s52.833 79.167 95.5 105.5s95 39.5 157 39.5h131v-178h-92c-76 0 -114 -40.333 -114 -121v-149h206v-160z" />
    <glyph glyph-name="g" unicode="g" horiz-adv-x="1124" 
d="M958 6c0 -85.333 -17.8379 -160.834 -53.5049 -226.501s-86.834 -117.334 -153.501 -155.001s-145.667 -56.5 -237 -56.5c-53.333 0 -100.666 4.5 -141.999 13.5s-80.166 23.667 -116.499 44s-72.5 46.833 -108.5 79.5l134 133c36 -32.667 70.5 -56.167 103.5 -70.5
s73.5 -21.5 121.5 -21.5c82.667 0 144 25 184 75s60 113 60 189v133c-36 -42.667 -75.667 -73 -119 -91s-93.333 -27 -150 -27c-49.333 0 -95.666 8 -138.999 24s-79.666 38.667 -108.999 68c-46.667 46.667 -77.667 103.334 -93 170.001s-23 150.667 -23 252
c0 100.667 7.83301 184.667 23.5 252s46.5 124 92.5 170c28.667 28.667 64.334 50.834 107.001 66.501s90.334 23.5 143.001 23.5c58 0 108.5 -9 151.5 -27s83.5 -50 121.5 -96v110h202v-1032zM749.995 538.999c0 100 -13.833 179.167 -41.5 237.5s-84.167 87.5 -169.5 87.5
c-86 0 -143 -29 -171 -87s-42 -137.333 -42 -238s14 -180.167 42 -238.5s85 -87.5 171 -87.5c85.333 0 141.833 29.333 169.5 88s41.5 138 41.5 238z" />
    <glyph glyph-name="h" unicode="h" horiz-adv-x="1159" 
d="M1004 0h-209.001v637c0 76 -19.333 132.833 -58 170.5s-89 56.5 -151 56.5s-112.667 -19.167 -152 -57.5s-59 -94.833 -59 -169.5v-637h-209v1458h209v-524c70.667 78 160 117 268 117c74.667 0 139.334 -15.833 194.001 -47.5s96.167 -76.167 124.5 -133.5
s42.5 -124 42.5 -200v-670z" />
    <glyph glyph-name="i" unicode="i" horiz-adv-x="541" 
d="M406 1376c0 -36.667 -13.6689 -68.333 -41.002 -95s-59 -40 -95 -40c-35.333 0 -66.666 13.667 -93.999 41s-41 58.666 -41 93.999c0 36.667 13.333 68.334 40 95.001s58.334 40 95.001 40c37.333 0 69.333 -13 96 -39s40 -58 40 -96zM374.998 0.000976562h-209v1038h209
v-1038z" />
    <glyph glyph-name="j" unicode="j" horiz-adv-x="541" 
d="M406 1376c0 -36.667 -13.6689 -68.333 -41.002 -95s-59 -40 -95 -40c-35.333 0 -66.666 13.667 -93.999 41s-41 58.666 -41 93.999c0 36.667 13.333 68.334 40 95.001s58.334 40 95.001 40c37.333 0 69.333 -13 96 -39s40 -58 40 -96zM374.998 -136.999
c0 -84 -23.832 -152.833 -71.499 -206.5s-118.834 -80.5 -213.501 -80.5h-129v178h92c40.667 0 69.667 9.83301 87 29.5s26 50.167 26 91.5v1163h209v-1175z" />
    <glyph glyph-name="k" unicode="k" horiz-adv-x="1122" 
d="M1077 0h-258l-291 479l-153 -174v-305h-209v1458h209v-899l403 479h254l-360 -407z" />
    <glyph glyph-name="l" unicode="l" horiz-adv-x="637" 
d="M573 0h-129c-93.333 0 -164 27 -212 81s-72 122.667 -72 206v1171h209v-1159c0 -41.333 8.33301 -71.833 25 -91.5s45.667 -29.5 87 -29.5h92v-178z" />
    <glyph glyph-name="m" unicode="m" horiz-adv-x="1796" 
d="M1640 0l-208 0.000976562v633c0 78 -19.333 136 -58 174s-89 57 -151 57c-60 0 -110.833 -19.333 -152.5 -58s-62.5 -93 -62.5 -163v-643h-209v633c0 52 -9.16699 95.333 -27.5 130s-43.166 60.167 -74.499 76.5s-67 24.5 -107 24.5
c-62.667 0 -114.167 -19.5 -154.5 -58.5s-60.5 -96.5 -60.5 -172.5v-633h-209v1038h205v-104c34 37.333 75 66.166 123 86.499s99 30.5 153 30.5c130.667 0 229 -50.667 295 -152c83.333 101.333 192 152 326 152c109.333 0 196.666 -31.667 261.999 -95
c73.333 -70.667 110 -168 110 -292v-664z" />
    <glyph glyph-name="n" unicode="n" horiz-adv-x="1163" 
d="M1008 0l-209.002 -0.000976562v633c0 52 -9.16699 95.333 -27.5 130s-43.166 60.167 -74.499 76.5s-67 24.5 -107 24.5c-62.667 0 -114.167 -19.5 -154.5 -58.5s-60.5 -96.5 -60.5 -172.5v-633h-209v1038h205v-104c34.667 38 76.334 67 125.001 87s99 30 151 30
c106 0 191.333 -31.667 256 -95c70 -67.333 105 -164.666 105 -291.999v-664z" />
    <glyph glyph-name="o" unicode="o" horiz-adv-x="1100" 
d="M983 520c0 -96 -8.66699 -175.997 -26 -239.997s-49.666 -120.333 -96.999 -169c-78.667 -82 -182.334 -123 -311.001 -123c-127.333 0 -230.333 41 -309 123c-46.667 48.667 -78.834 105.167 -96.501 169.5s-26.5 144.166 -26.5 239.499c0 93.333 9 172.666 27 237.999
s50 122 96 170c22.667 24 49 45 79 63s64.833 32.5 104.5 43.5s81.5 16.5 125.5 16.5c68.667 0 129 -11.333 181 -34s95.333 -52.334 130 -89.001c46.667 -48.667 78.834 -105.167 96.501 -169.5s26.5 -143.833 26.5 -238.5zM774 520.003c0 68 -4.66699 125.167 -14 171.5
s-28.666 84.166 -57.999 113.499c-38 39.333 -89 59 -153 59c-62 0 -112.667 -19.667 -152 -59c-28.667 -29.333 -47.667 -67.166 -57 -113.499s-14 -103.5 -14 -171.5c0 -67.333 4.66699 -124.166 14 -170.499s28.333 -84.166 57 -113.499c41.333 -41.333 92 -62 152 -62
c62 0 113 20.667 153 62c29.333 29.333 48.666 67.166 57.999 113.499s14 103.166 14 170.499z" />
    <glyph glyph-name="p" unicode="p" horiz-adv-x="1133" 
d="M1016 520c0 -65.333 -2.66895 -123.333 -8.00195 -174s-16.833 -99.667 -34.5 -147s-42.5 -87 -74.5 -119c-28.667 -28.667 -65 -51.167 -109 -67.5s-91.667 -24.5 -143 -24.5c-57.333 0 -108.166 9.16699 -152.499 27.5s-84.166 48.5 -119.499 90.5v-526h-209v1458h205
v-110c38 46 78.5 78 121.5 96s93.833 27 152.5 27c52 0 100.5 -8.33301 145.5 -25s81.167 -39.334 108.5 -68.001c32 -32 56.833 -71.5 74.5 -118.5s29.167 -95.667 34.5 -146s8 -108.166 8 -173.499zM806.998 520c0 70.667 -5.33105 130.833 -15.998 180.5
s-31.834 89.334 -63.501 119.001s-76.834 44.5 -135.501 44.5c-59.333 0 -105 -15 -137 -45s-53.333 -69.667 -64 -119s-16 -109.333 -16 -180s5.33301 -130.834 16 -180.501s32 -89.667 64 -120s77.667 -45.5 137 -45.5c85.333 0 142.5 30.5 171.5 91.5
s43.5 145.833 43.5 254.5z" />
    <glyph glyph-name="q" unicode="q" horiz-adv-x="1133" 
d="M967 -420h-209v526c-24 -28.667 -50.167 -51.834 -78.5 -69.501s-58 -30.167 -89 -37.5s-66.167 -11 -105.5 -11c-50.667 0 -97.834 8.16699 -141.501 24.5s-80.5 38.833 -110.5 67.5c-32.667 32.667 -57.5 72.5 -74.5 119.5s-28.167 95.833 -33.5 146.5
s-8 108.667 -8 174s2.66699 123.166 8 173.499s16.5 98.833 33.5 145.5s41.833 86.334 74.5 119.001c28.667 28.667 65.334 51.334 110.001 68.001s92.667 25 144 25c59.333 0 110.5 -9 153.5 -27s83.5 -50 121.5 -96v110h205v-1458zM758 520
c0 70.667 -5.33105 130.833 -15.998 180.5s-31.834 89.334 -63.501 119.001s-76.834 44.5 -135.501 44.5c-59.333 0 -105 -15 -137 -45s-53.333 -69.667 -64 -119s-16 -109.333 -16 -180s5.33301 -130.834 16 -180.501s32 -89.667 64 -120s77.667 -45.5 137 -45.5
c85.333 0 142.5 30.5 171.5 91.5s43.5 145.833 43.5 254.5z" />
    <glyph glyph-name="r" unicode="r" horiz-adv-x="899" 
d="M895 952l-157.999 -157.001c-24 24.667 -47 42.334 -69 53.001s-50.667 16 -86 16c-37.333 0 -71.833 -9.66699 -103.5 -29s-56.834 -46.5 -75.501 -81.5s-28 -75.833 -28 -122.5v-631h-209v1038h205v-112c27.333 38 65.833 68.333 115.5 91s103.167 34 160.5 34
c51.333 0 96.5 -7.5 135.5 -22.5s76.5 -40.5 112.5 -76.5z" />
    <glyph glyph-name="s" unicode="s" horiz-adv-x="1022" 
d="M934 317c0 -70.667 -18.3291 -130.665 -54.9961 -179.998s-87.334 -86.5 -152.001 -111.5s-139.667 -37.5 -225 -37.5c-62 0 -118.167 4.33301 -168.5 13s-97.333 23.667 -141 45s-85.834 51.666 -126.501 90.999l137 137c70 -72 169.667 -108 299 -108
c42.667 0 81.5 5.33301 116.5 16s62.167 26.667 81.5 48s29 47.666 29 78.999c0 74.667 -46.333 115.667 -139 123l-166 14c-66 6 -121.833 20 -167.5 42s-80.334 53.333 -104.001 94s-35.5 91 -35.5 151c0 98 37.167 175.5 111.5 232.5s167.5 85.5 279.5 85.5
c167.333 0 295.666 -39 384.999 -117l-131 -133c-60.667 50.667 -146 76 -256 76c-61.333 0 -108.166 -12 -140.499 -36s-48.5 -56.667 -48.5 -98c0 -70 48 -109.333 144 -118l164 -15c64.667 -5.33301 120.167 -19.333 166.5 -42s81.666 -55 105.999 -97
s36.5 -93.333 36.5 -154z" />
    <glyph glyph-name="t" unicode="t" horiz-adv-x="700" 
d="M600 0l-125 -0.000976562c-61.333 0 -113.5 13.333 -156.5 40s-75.167 61.834 -96.5 105.501s-32 91.5 -32 143.5v571h-118v160h118v315h209v-315h201v-160h-201v-561c0 -80.667 38.333 -121 115 -121h86v-178z" />
    <glyph glyph-name="u" unicode="u" horiz-adv-x="1163" 
d="M997 0l-204.001 -0.000976562v104c-35.333 -37.333 -77.166 -66 -125.499 -86s-98.833 -30 -151.5 -30c-104.667 0 -190 31.333 -256 94c-38 37.333 -64.833 79.833 -80.5 127.5s-23.5 102.834 -23.5 165.501v663h209v-632c0 -77.333 19.333 -135.333 58 -174
s88.667 -58 150 -58c62.667 0 114.167 19.5 154.5 58.5s60.5 96.833 60.5 173.5v632h209v-1038z" />
    <glyph glyph-name="v" unicode="v" horiz-adv-x="965" 
d="M948 1038l-381 -1038h-170l-381 1038h222l245 -731l244 731h221z" />
    <glyph glyph-name="w" unicode="w" horiz-adv-x="1522" 
d="M1505 1038l-323 -1038h-178l-244 725l-242 -725h-180l-322 1038h222l200 -731l242 731h162l239 -731l201 731h223z" />
    <glyph glyph-name="x" unicode="x" horiz-adv-x="1030" 
d="M985 0h-252l-217 354l-219 -354h-252l356 530l-342 508h252l205 -338l203 338h252l-340 -508z" />
    <glyph glyph-name="y" unicode="y" horiz-adv-x="958" 
d="M950 1038l-458 -1245c-20 -54 -45.333 -97 -76 -129c-51.333 -50.667 -122.333 -76 -213 -76h-84v189h53c43.333 0 75.5 7.83301 96.5 23.5s38.833 44.5 53.5 86.5l57 162l-363 989h222l247 -731l242 731h223z" />
    <glyph glyph-name="z" unicode="z" horiz-adv-x="961" 
d="M862 0h-774v166l516 686h-487v186h745v-166l-520 -686h520v-186z" />
    <glyph glyph-name="braceleft" unicode="{" horiz-adv-x="834" 
d="M741 -152h-145.001c-99.333 0 -172.333 23.333 -219 70c-26.667 28 -45.667 58.5 -57 91.5s-17 74.167 -17 123.5v342c0 57.333 -12.333 98.333 -37 123c-24.667 26 -57.334 39 -98.001 39h-76v184h76c39.333 0 72 13 98 39c24.667 24.667 37 65.667 37 123v342
c0 50.667 5.83301 92.667 17.5 126s30.5 63 56.5 89c46.667 46.667 119.667 70 219 70h145v-187h-79c-62.667 0 -102.334 -9.33301 -119.001 -28c-20.667 -20.667 -31 -64.334 -31 -131.001v-330c0 -60 -12.167 -104.5 -36.5 -133.5s-57.166 -52.833 -98.499 -71.5
c40.667 -17.333 73.334 -40.666 98.001 -69.999s37 -74.333 37 -135v-329c0 -67.333 10.333 -111.333 31 -132c16.667 -18.667 56.334 -28 119.001 -28h79v-187z" />
    <glyph glyph-name="bar" unicode="|" horiz-adv-x="692" 
d="M451 -152h-209v1762h209v-1762z" />
    <glyph glyph-name="braceright" unicode="}" horiz-adv-x="834" 
d="M741 637l-73 0.00195312c-41.333 0 -75 -13 -101 -39c-24.667 -26 -37 -67 -37 -123v-342c0 -49.333 -5.5 -90.833 -16.5 -124.5s-29.833 -63.834 -56.5 -90.501c-46.667 -46.667 -119.667 -70 -219 -70h-146v187h80c61.333 0 101 9.33301 119 28
c20.667 21.333 31 65.333 31 132v329c0 60 12.5 104.833 37.5 134.5s58.167 53.167 99.5 70.5c-42.667 19.333 -76.167 43.5 -100.5 72.5s-36.5 73.167 -36.5 132.5v330c0 66 -10.333 109.667 -31 131c-18 18.667 -57.667 28 -119 28h-80v187h146
c99.333 0 172.333 -23.333 219 -70c26 -25.333 44.667 -54.833 56 -88.5s17 -75.834 17 -126.501v-342c0 -56 12.333 -97 37 -123c27.333 -26 61 -39 101 -39h73v-184z" />
    <glyph glyph-name="asciitilde" unicode="~" horiz-adv-x="1176" 
d="M1087 573c-60.667 -60.667 -112.999 -102.333 -156.999 -125s-92.667 -34 -146 -34c-34.667 0 -69.5 5.5 -104.5 16.5s-76.5 27.833 -124.5 50.5c-64 32.667 -118 49 -162 49c-30.667 0 -57.834 -5.5 -81.501 -16.5s-54.5 -35.5 -92.5 -73.5l-131 131
c39.333 39.333 75 70.833 107 94.5s63 40.5 93 50.5s63.667 15 101 15c38.667 0 75.5 -5.83301 110.5 -17.5s73.833 -28.167 116.5 -49.5l38.5 -18c11.667 -5.33301 26.667 -11 45 -17s32.333 -10 42 -12s22.5 -3 38.5 -3c31.333 0 59 5.83301 83 17.5
s54.333 36.167 91 73.5z" />
    <glyph glyph-name="nonbreakingspace" unicode="&#xa0;" horiz-adv-x="492" 
 />
    <glyph glyph-name="exclamdown" unicode="&#xa1;" horiz-adv-x="680" 
d="M475 911c0 -36 -13.167 -66.833 -39.5 -92.5s-57.5 -38.5 -93.5 -38.5s-67.167 12.833 -93.5 38.5s-39.5 56.5 -39.5 92.5c0 36.667 13 68 39 94s57.333 39 94 39s68 -13 94 -39s39 -57.333 39 -94zM469 -420h-254l47 1024h158z" />
    <glyph glyph-name="cent" unicode="&#xa2;" horiz-adv-x="1020" 
d="M940 377c-42.667 -45.333 -87.001 -79.998 -133.001 -103.998s-98 -40 -156 -48v-225h-164v227c-73.333 12 -138.333 40 -195 84s-100.667 103.5 -132 178.5s-47 161.833 -47 260.5c0 99.333 15.667 186.166 47 260.499s75.5 133.5 132.5 177.5s121.833 72 194.5 84v186
h164v-184c58 -6.66699 109.667 -21.834 155 -45.501s90 -59.167 134 -106.5l-139 -135c-49.333 56 -105.333 88.667 -168 98v-671c32.667 4.66699 62.334 15 89.001 31s53 38.333 79 67zM505.999 418.002l0.000976562 663.001c-46 -9.33301 -85.667 -36 -119 -80
c-22.667 -31.333 -39.167 -67 -49.5 -107s-15.5 -88 -15.5 -144c0 -58 5.16699 -106.833 15.5 -146.5s26.166 -74.834 47.499 -105.501c32.667 -43.333 73 -70 121 -80z" />
    <glyph glyph-name="sterling" unicode="&#xa3;" horiz-adv-x="1155" 
d="M1057 0h-841.999v641h-127v160h127v196c0 98.667 21.5 183.5 64.5 254.5s101.667 125.167 176 162.5s156.5 56 246.5 56c76 0 141.833 -11 197.5 -33s108.167 -58 157.5 -108l-148 -145c-28.667 30 -57.834 52.167 -87.501 66.5s-69.5 21.5 -119.5 21.5
c-54 0 -100.833 -11.167 -140.5 -33.5s-70.167 -55.333 -91.5 -99s-32 -96.5 -32 -158.5v-180h264v-160h-264v-442h619v-199z" />
    <glyph glyph-name="currency" unicode="&#xa4;" horiz-adv-x="1362" 
d="M1223 166l-137.998 -137l-151 151c-76.667 -52 -161.334 -78 -254.001 -78s-177.334 26 -254.001 78l-150 -151l-137 137l150 151c-52 76.667 -78 161.334 -78 254.001c0 94 26 178.667 78 254l-150 150l137 137l150 -149c73.333 50 158 75 254 75s180.667 -25 254 -75
l151 149l138 -137l-152 -150c52 -75.333 78 -160 78 -254c0 -92.667 -26 -177.334 -78 -254.001zM958.002 571c0 50 -12.501 96.5 -37.501 139.5s-59 76.667 -102 101s-89.167 36.5 -138.5 36.5c-77.333 0 -143.166 -26.833 -197.499 -80.5s-81.5 -119.167 -81.5 -196.5
c0 -36.667 7.16699 -72 21.5 -106s34.5 -64 60.5 -90s56 -46.167 90 -60.5s69.667 -21.5 107 -21.5c50 0 96.333 12.333 139 37s76.5 58.5 101.5 101.5s37.5 89.5 37.5 139.5z" />
    <glyph glyph-name="yen" unicode="&#xa5;" horiz-adv-x="1114" 
d="M1102 1458l-299 -594h178v-159h-260l-53 -105v-106h313v-160h-313v-334h-222v334h-313v160h313v106l-53 105h-260v159h178l-301 594h242l307 -643l303 643h240z" />
    <glyph glyph-name="brokenbar" unicode="&#xa6;" horiz-adv-x="705" 
d="M451 893h-209v717h209v-717zM451 -152h-209v717h209v-717z" />
    <glyph glyph-name="section" unicode="&#xa7;" horiz-adv-x="1112" 
d="M967 541c0 -73.333 -19.6689 -137.999 -59.002 -193.999s-86 -98 -140 -126c54.667 -24 98.334 -59.667 131.001 -107s49 -108 49 -182c0 -74.667 -17.833 -139.667 -53.5 -195s-83.167 -97.333 -142.5 -126s-124.333 -43 -195 -43c-108.667 0 -201 29.667 -277 89
s-116 145.666 -120 258.999h205c4 -50.667 23 -90.334 57 -119.001s79 -43 135 -43c57.333 0 102.666 15.333 135.999 46s50 72.667 50 126c0 40 -12.833 75.833 -38.5 107.5s-65.834 55.834 -120.501 72.501l-144 44c-192 58 -288 184.667 -288 380
c0 74 19.833 139.333 59.5 196s85.834 98 138.501 124c-55.333 27.333 -97.833 62.333 -127.5 105s-44.5 99 -44.5 169c0 64.667 15.167 123.167 45.5 175.5s74.333 93.833 132 124.5s125.5 46 203.5 46c77.333 0 145 -14.167 203 -42.5s102.333 -68 133 -119
s47 -109.5 49 -175.5h-201c-7.33301 103.333 -68.666 155 -183.999 155c-57.333 0 -101.666 -13.667 -132.999 -41s-47 -66.333 -47 -117c0 -79.333 51 -134.333 153 -165l144 -43c194 -60 291 -187 291 -381zM761.998 535.001c0 70.667 -20 125 -60 163
c-40 38.667 -87.667 58 -143 58c-60 0 -108.333 -19.333 -145 -58c-38.667 -40.667 -58 -95 -58 -163c0 -66.667 19.333 -120.667 58 -162c36.667 -38.667 85 -58 145 -58s107.667 19.333 143 58c40 42.667 60 96.667 60 162z" />
    <glyph glyph-name="dieresis" unicode="&#xa8;" 
d="M852 1346c0 -31.333 -11 -58.666 -33 -81.999s-49.333 -35 -82 -35c-30.667 0 -57.667 11.667 -81 35s-35 50.666 -35 81.999s11.667 58.166 35 80.499s50.333 33.5 81 33.5c32 0 59.167 -11.167 81.5 -33.5s33.5 -49.166 33.5 -80.499zM403 1346
c0 -31.333 -11.333 -58.668 -34 -82.001s-50 -35 -82 -35s-59.167 11.667 -81.5 35s-33.5 50.666 -33.5 81.999c0 30.667 11.333 57.334 34 80.001s49.667 34 81 34s58.5 -11.167 81.5 -33.5s34.5 -49.166 34.5 -80.499z" />
    <glyph glyph-name="copyright" unicode="&#xa9;" horiz-adv-x="1765" 
d="M1624 729c0 -99.333 -19.333 -194.668 -58 -286.001s-91.667 -170.666 -159 -237.999s-146.666 -120.333 -237.999 -159s-186.666 -58 -285.999 -58s-194.5 19.167 -285.5 57.5s-170.5 91.333 -238.5 159s-121.333 147.167 -160 238.5s-58 186.666 -58 285.999
s19.333 194.666 58 285.999s92 170.833 160 238.5s147.5 120.667 238.5 159s186.167 57.5 285.5 57.5s194.666 -19.333 285.999 -58s170.666 -91.667 237.999 -159s120.333 -146.666 159 -237.999s58 -186.666 58 -285.999zM1475 728.998c0 110 -26.5 211.5 -79.5 304.5
s-124.833 165.833 -215.5 218.5s-189.667 79 -297 79c-108.667 0 -208.167 -26.5 -298.5 -79.5s-161.833 -125.833 -214.5 -218.5s-79 -194 -79 -304s26.333 -211.333 79 -304s124.167 -165.5 214.5 -218.5s189.833 -79.5 298.5 -79.5c107.333 0 206.333 26.333 297 79
s162.5 125.5 215.5 218.5s79.5 194.5 79.5 304.5zM1163 425.998c-41.333 -37.333 -82.3359 -64.499 -123.003 -81.499s-89 -25.5 -145 -25.5c-71.333 0 -135.166 16.667 -191.499 50s-99.666 81.166 -129.999 143.499s-45.5 134.5 -45.5 216.5c0 62.667 9 119.5 27 170.5
s42.667 94 74 129s70 62.167 116 81.5s96 29 150 29c56 0 104 -8.5 144 -25.5s81.333 -44.167 124 -81.5l-94 -96c-30 27.333 -58 46.166 -84 56.499s-56 15.5 -90 15.5c-74 0 -129.333 -25.167 -166 -75.5s-55 -118.166 -55 -203.499c0 -84.667 18.333 -152.167 55 -202.5
s92 -75.5 166 -75.5c34 0 63.833 5.16699 89.5 15.5s53.834 28.833 84.501 55.5z" />
    <glyph glyph-name="ordfeminine" unicode="&#xaa;" horiz-adv-x="926" 
d="M776 629h-166.001v73c-30 -30 -61.5 -51 -94.5 -63s-73.833 -18 -122.5 -18s-90.834 5.66699 -126.501 17s-67.167 30 -94.5 56c-44 44 -66 103.333 -66 178c0 72 24.833 130 74.5 174s119.834 66 210.501 66h215v57c0 52 -14 90.333 -42 115s-73.333 37 -136 37
c-45.333 0 -80.166 -5.66699 -104.499 -17s-48.833 -32.333 -73.5 -63l-113 107c38 44.667 79.333 75.5 124 92.5s103 25.5 175 25.5c113.333 0 198.333 -24 255 -72s85 -118.667 85 -212v-553zM605.999 928l-0.000976562 65h-190
c-47.333 0 -83.166 -9.83301 -107.499 -29.5s-36.5 -48.5 -36.5 -86.5c0 -75.333 48.667 -113 146 -113c37.333 0 67.333 2.66699 90 8s43.667 17.666 63 36.999c23.333 20.667 35 60.334 35 119.001z" />
    <glyph glyph-name="guillemotleft" unicode="&#xab;" horiz-adv-x="1212" 
d="M1065 86l-471 471l471 469v-252l-221 -217l221 -219v-252zM547 86l-471 471l471 469v-252l-219 -217l219 -219v-252z" />
    <glyph glyph-name="logicalnot" unicode="&#xac;" horiz-adv-x="1092" 
d="M991 201h-194v288h-699v195h893v-483z" />
    <glyph glyph-name="minus" unicode="&#xad;" horiz-adv-x="1092" 
d="M987 471h-883v195h883v-195z" />
    <glyph glyph-name="registered" unicode="&#xae;" horiz-adv-x="1765" 
d="M1624 729c0 -99.333 -19.333 -194.668 -58 -286.001s-91.667 -170.666 -159 -237.999s-146.666 -120.333 -237.999 -159s-186.666 -58 -285.999 -58s-194.5 19.167 -285.5 57.5s-170.5 91.333 -238.5 159s-121.333 147.167 -160 238.5s-58 186.666 -58 285.999
s19.333 194.666 58 285.999s92 170.833 160 238.5s147.5 120.667 238.5 159s186.167 57.5 285.5 57.5s194.666 -19.333 285.999 -58s170.666 -91.667 237.999 -159s120.333 -146.666 159 -237.999s58 -186.666 58 -285.999zM1475 728.998
c0 110 -26.168 211.332 -78.501 303.999s-123.833 165.834 -214.5 219.501s-190.334 80.5 -299.001 80.5c-82.667 0 -160 -15.333 -232 -46s-135.333 -73.834 -190 -129.501s-97 -120.5 -127 -194.5s-45 -152 -45 -234c0 -110.667 26.333 -212.167 79 -304.5
s124.334 -165.333 215.001 -219s190.667 -80.5 300 -80.5c108.667 0 208.334 26.833 299.001 80.5s162.167 126.834 214.5 219.501s78.5 194 78.5 304zM1204 329.997h-165.999l-164 317h-102v-317h-147v800h301c49.333 0 93.666 -11.167 132.999 -33.5s70 -52.333 92 -90
s33 -78.167 33 -121.5c0 -54 -14.5 -99.667 -43.5 -137s-67.167 -64 -114.5 -80zM1038 884.997c0 34.667 -12.167 63.5 -36.5 86.5s-55.833 34.5 -94.5 34.5h-135v-242h135c38.667 0 70.167 11.5 94.5 34.5s36.5 51.833 36.5 86.5z" />
    <glyph glyph-name="macron" unicode="&#xaf;" 
d="M829 1274h-634v149h634v-149z" />
    <glyph glyph-name="degree" unicode="&#xb0;" horiz-adv-x="965" 
d="M840 1124c0 -63.333 -15.999 -122.501 -47.999 -177.501s-76 -98.5 -132 -130.5s-115.667 -48 -179 -48c-48.667 0 -94.167 9 -136.5 27s-80.5 44 -114.5 78s-60 72.167 -78 114.5s-27 87.833 -27 136.5c0 63.333 16 123 48 179s75.5 100 130.5 132s114.167 48 177.5 48
c64 0 123.667 -16.167 179 -48.5s99.166 -76.166 131.499 -131.499s48.5 -115 48.5 -179zM668.001 1124c0 53.333 -18.167 98.5 -54.5 135.5s-80.5 55.5 -132.5 55.5s-95.667 -18.5 -131 -55.5s-53 -82.167 -53 -135.5c0 -52.667 17.833 -97.167 53.5 -133.5
s79.167 -54.5 130.5 -54.5s95.333 18 132 54s55 80.667 55 134z" />
    <glyph glyph-name="plusminus" unicode="&#xb1;" horiz-adv-x="1092" 
d="M987 647h-344v-346h-194v346h-345v195h345v344h194v-344h344v-195zM987 0h-883v195h883v-195z" />
    <glyph glyph-name="twosuperior" unicode="&#xb2;" horiz-adv-x="717" 
d="M625 584l-533.001 0.000976562v141l330 381c30 35.333 45 70.666 45 105.999c0 34 -9.5 61.333 -28.5 82s-45.833 31 -80.5 31c-30 0 -55.5 -9 -76.5 -27s-31.5 -46.667 -31.5 -86h-158c0 77.333 25 139 75 185s113.667 69 191 69c78.667 0 142.834 -22.667 192.501 -68
s74.5 -107.333 74.5 -186c0 -38.667 -7 -71.5 -21 -98.5s-38.667 -60.833 -74 -101.5l-247 -287h342v-141z" />
    <glyph glyph-name="threesuperior" unicode="&#xb3;" horiz-adv-x="741" 
d="M649 836c0 -83.333 -26.1709 -148.001 -78.5039 -194.001s-118.166 -69 -197.499 -69c-36 0 -71.167 5.16699 -105.5 15.5s-64.166 25.666 -89.499 45.999s-45.666 46.833 -60.999 79.5s-23.666 71.667 -24.999 117h158c0.666992 -36.667 12.834 -65.167 36.501 -85.5
s52.5 -30.5 86.5 -30.5c35.333 0 64 11 86 33s33 52.667 33 92c0 36.667 -10.667 66.334 -32 89.001s-52.333 34 -93 34h-23v135h23c37.333 0 65.666 10.5 84.999 31.5s29 47.833 29 80.5c0 36.667 -10.667 65 -32 85s-47.333 30 -78 30c-32 0 -58 -9.5 -78 -28.5
s-31 -44.833 -33 -77.5h-156c2 50.667 14.833 94.667 38.5 132s55.5 65.833 95.5 85.5s84.333 29.5 133 29.5c77.333 0 141 -23.167 191 -69.5s75 -106.166 75 -179.499c0 -86 -34 -147 -102 -183c76 -40 114 -106 114 -198z" />
    <glyph glyph-name="acute" unicode="&#xb4;" 
d="M791 1559l-228 -332h-157l153 332h232z" />
    <glyph glyph-name="mu" unicode="&#xb5;" horiz-adv-x="1165" 
d="M997 0h-204v104c-72 -77.333 -163.667 -116 -275 -116c-62.667 0 -113.667 17 -153 51v-459h-209v1458h209v-632c0 -76.667 19.667 -134.5 59 -173.5s89.666 -58.5 150.999 -58.5c62.667 0 113.834 19.5 153.501 58.5s59.5 96.833 59.5 173.5v632h209v-1038z" />
    <glyph glyph-name="paragraph" unicode="&#xb6;" horiz-adv-x="1305" 
d="M1114 -420l-208.999 0.000976562v1680h-221v-1680h-209v1069c-54.667 0 -106 10.5 -154 31.5s-90.5 50.5 -127.5 88.5s-65.5 81.667 -85.5 131s-30 99.666 -30 150.999c0 80.667 18.833 151.667 56.5 213s91.667 109 162 143s151.166 51 242.499 51h575v-1878z" />
    <glyph glyph-name="cedilla" unicode="&#xb8;" 
d="M653 -131l-104 -301h-207l143 301h168z" />
    <glyph glyph-name="onesuperior" unicode="&#xb9;" horiz-adv-x="567" 
d="M418 584h-158v698l-178 -156v179l178 153h158v-874z" />
    <glyph glyph-name="ordmasculine" unicode="&#xba;" horiz-adv-x="938" 
d="M815 1044c0 -50.667 -2.83301 -95.1689 -8.5 -133.502s-16 -73.833 -31 -106.5s-34.5 -61 -58.5 -85c-62.667 -65.333 -145.334 -98 -248.001 -98c-101.333 0 -183.333 32.667 -246 98c-24 24 -43.5 52.333 -58.5 85s-25.333 68.167 -31 106.5s-8.5 82.833 -8.5 133.5
s2.83301 94.834 8.5 132.501s16 73 31 106s34.5 61.5 58.5 85.5c62.667 65.333 144.667 98 246 98c102.667 0 185.334 -32.667 248.001 -98c38.667 -39.333 64.667 -83.666 78 -132.999s20 -113 20 -191zM643 1044c0 58.667 -3.16504 105.166 -9.49805 139.499
s-20.833 62.5 -43.5 84.5c-32.667 31.333 -73 47 -121 47c-46.667 0 -86.334 -15.667 -119.001 -47c-22.667 -22.667 -37.5 -51.834 -44.5 -87.501s-10.5 -81.167 -10.5 -136.5c0 -54 3.5 -99.167 10.5 -135.5s21.833 -66.166 44.5 -89.499c31.333 -31.333 71 -47 119 -47
c49.333 0 89.666 15.667 120.999 47c22.667 22.667 37.167 51.334 43.5 86.001s9.5 81 9.5 139z" />
    <glyph glyph-name="guillemotright" unicode="&#xbb;" horiz-adv-x="1212" 
d="M1139 557l-473 -471v252l219 219l-219 217v252zM621 557l-474 -471v252l222 219l-222 217v252z" />
    <glyph glyph-name="onequarter" unicode="&#xbc;" horiz-adv-x="1655" 
d="M1573 125h-82v-125h-152v125h-356v145l301 604h170l-301 -604h186v170h152v-170h82v-145zM1221 1458l-686 -1458h-166l686 1458h166zM418 584h-158v698l-178 -156v179l178 153h158v-874z" />
    <glyph glyph-name="onehalf" unicode="&#xbd;" horiz-adv-x="1694" 
d="M1602 0h-531.003v141l328 381c30 35.333 45 71 45 107c0 34 -9.5 61.167 -28.5 81.5s-45.833 30.5 -80.5 30.5c-31.333 0 -57.166 -8.66699 -77.499 -26s-30.5 -46 -30.5 -86h-156c0 77.333 24.833 139 74.5 185s112.834 69 189.501 69c78.667 0 142.834 -23 192.501 -69
s74.5 -107.667 74.5 -185c0 -38.667 -7 -71.667 -21 -99s-38.667 -61.333 -74 -102l-247 -287h342v-141zM1204 1458l-686 -1458h-166l686 1458h166zM417.997 584h-158v698l-178 -156v179l178 153h158v-874z" />
    <glyph glyph-name="threequarters" unicode="&#xbe;" horiz-adv-x="1729" 
d="M1647 125h-82v-125h-150v125h-356v145l299 604h172l-301 -604h186v170h150v-170h82v-145zM1307 1458l-686 -1458h-166l686 1458h166zM649 836c0 -83.333 -26.1709 -148.001 -78.5039 -194.001s-118.166 -69 -197.499 -69c-36 0 -71.167 5.16699 -105.5 15.5
s-64.166 25.666 -89.499 45.999s-45.666 46.833 -60.999 79.5s-23.666 71.667 -24.999 117h158c0.666992 -36.667 12.834 -65.167 36.501 -85.5s52.5 -30.5 86.5 -30.5c35.333 0 64 11 86 33s33 52.667 33 92c0 36.667 -10.667 66.334 -32 89.001s-52.333 34 -93 34h-23v135
h23c37.333 0 65.666 10.5 84.999 31.5s29 47.833 29 80.5c0 36.667 -10.667 65 -32 85s-47.333 30 -78 30c-32 0 -58 -9.5 -78 -28.5s-31 -44.833 -33 -77.5h-156c2 50.667 14.833 94.667 38.5 132s55.5 65.833 95.5 85.5s84.333 29.5 133 29.5
c77.333 0 141 -23.167 191 -69.5s75 -106.166 75 -179.499c0 -86 -34 -147 -102 -183c76 -40 114 -106 114 -198z" />
    <glyph glyph-name="questiondown" unicode="&#xbf;" horiz-adv-x="1047" 
d="M643 911c0 -36 -13.167 -66.833 -39.5 -92.5s-57.5 -38.5 -93.5 -38.5s-67.167 12.833 -93.5 38.5s-39.5 56.5 -39.5 92.5c0 36.667 13 68 39 94s57.333 39 94 39s68 -13 94 -39s39 -57.333 39 -94zM928 -39c0 -76.667 -17.6689 -144.668 -53.002 -204.001
s-84.333 -105.666 -147 -138.999s-132 -50 -208 -50c-74 0 -142.333 16 -205 48s-112 77.667 -148 137s-54 128.666 -54 207.999s32 163.333 96 252l158 221c24 34 36 71 36 111v61h209v-74c0 -40.667 -5.16699 -76.167 -15.5 -106.5s-28.166 -62.166 -53.499 -95.499
l-160 -215c-40.667 -54 -61 -106 -61 -156c0 -57.333 18.333 -105.5 55 -144.5s84.334 -58.5 143.001 -58.5c60.667 0 109 19.667 145 59s54 88 54 146h209z" />
    <glyph glyph-name="Agrave" unicode="&#xc0;" horiz-adv-x="1280" 
d="M1264 0h-236l-100 293h-576l-100 -293h-236l535 1458h178zM866 481l-221 647l-227 -647h448zM739 1600h-157l-228 332h232z" />
    <glyph glyph-name="Aacute" unicode="&#xc1;" horiz-adv-x="1280" 
d="M1264 0h-236l-100 293h-576l-100 -293h-236l535 1458h178zM866 481l-221 647l-227 -647h448zM912 1932l-228 -332h-157l153 332h232z" />
    <glyph glyph-name="Acircumflex" unicode="&#xc2;" horiz-adv-x="1280" 
d="M1264 0h-236l-100 293h-576l-100 -293h-236l535 1458h178zM866 481l-221 647l-227 -647h448zM985 1600h-174l-178 198l-178 -198h-174l264 329h176z" />
    <glyph glyph-name="Atilde" unicode="&#xc3;" horiz-adv-x="1280" 
d="M1264 0h-236l-100 293h-576l-100 -293h-236l535 1458h178zM866 481l-221 647l-227 -647h448zM979 1739c-29.333 -29.333 -56.001 -52.332 -80.001 -68.999s-46.167 -28.167 -66.5 -34.5s-42.5 -9.5 -66.5 -9.5c-27.333 0 -51.833 3.5 -73.5 10.5
s-48.167 19.167 -79.5 36.5c-44 26 -82.333 39 -115 39c-20.667 0 -39.167 -3.66699 -55.5 -11s-37.5 -24 -63.5 -50l-98 96c42.667 42.667 80 72.167 112 88.5s65.667 24.5 101 24.5c46 0 97 -16.333 153 -49c42.667 -26 80.334 -39 113.001 -39
c19.333 0 38 4.16699 56 12.5s39.667 25.166 65 50.499z" />
    <glyph glyph-name="Adieresis" unicode="&#xc4;" horiz-adv-x="1280" 
d="M1264 0h-236l-100 293h-576l-100 -293h-236l535 1458h178zM866 481l-221 647l-227 -647h448zM973 1719c0 -31.333 -11 -58.666 -33 -81.999s-49.333 -35 -82 -35c-30.667 0 -57.667 11.667 -81 35s-35 50.666 -35 81.999s11.667 58.166 35 80.499s50.333 33.5 81 33.5
c32 0 59.167 -11.167 81.5 -33.5s33.5 -49.166 33.5 -80.499zM524 1719c0 -31.333 -11.333 -58.668 -34 -82.001s-50 -35 -82 -35s-59.167 11.667 -81.5 35s-33.5 50.666 -33.5 81.999c0 30.667 11.333 57.334 34 80.001s49.667 34 81 34s58.5 -11.167 81.5 -33.5
s34.5 -49.166 34.5 -80.499z" />
    <glyph glyph-name="Aring" unicode="&#xc5;" horiz-adv-x="1280" 
d="M1264 0h-236l-100 293h-576l-100 -293h-236l535 1458h178zM866 481l-221 647l-227 -647h448zM889 1792c0 -46 -11.5 -88.667 -34.5 -128s-54.167 -70.5 -93.5 -93.5s-82 -34.5 -128 -34.5s-88.667 11.5 -128 34.5s-70.5 54.167 -93.5 93.5s-34.5 82 -34.5 128
s11.5 88.667 34.5 128s54.167 70.5 93.5 93.5s82 34.5 128 34.5s88.667 -11.5 128 -34.5s70.5 -54.167 93.5 -93.5s34.5 -82 34.5 -128zM764 1792c0 36 -12.5 66.501 -37.5 91.501s-56.167 37.5 -93.5 37.5c-36.667 0 -67.667 -12.667 -93 -38s-38 -55.666 -38 -90.999
c0 -34.667 12.833 -64.834 38.5 -90.501s56.5 -38.5 92.5 -38.5c36.667 0 67.667 12.667 93 38s38 55.666 38 90.999z" />
    <glyph glyph-name="AE" unicode="&#xc6;" horiz-adv-x="1950" 
d="M1837 0h-932v332h-481l-172 -332h-242l766 1458h1061v-198h-711v-429h607v-198h-607v-434h711v-199zM905 520v740l-385 -740h385z" />
    <glyph glyph-name="Ccedilla" unicode="&#xc7;" horiz-adv-x="1229" 
d="M1069 160c-35.333 -35.333 -73.333 -66.168 -114 -92.501s-84.667 -46.166 -132 -59.499s-101 -20 -161 -20c-50.667 0 -98.5 5.83301 -143.5 17.5s-88.167 29.5 -129.5 53.5s-78 52 -110 84c-45.333 46.667 -78 96.334 -98 149.001s-32.333 109.834 -37 171.501
s-7 150.167 -7 265.5c0 88.667 1.16699 159 3.5 211s7.66602 99.667 15.999 143s22 83.833 41 121.5s46.167 74.5 81.5 110.5c50.667 50.667 108.334 89.167 173.001 115.5s134.667 39.5 210 39.5c87.333 0 162.5 -14.167 225.5 -42.5s123.5 -71.5 181.5 -129.5l-147 -149
c-43.333 43.333 -83.666 74.666 -120.999 93.999s-83.666 29 -138.999 29c-42.667 0 -82.834 -7.66699 -120.501 -23s-69.5 -37 -95.5 -65c-19.333 -21.333 -34 -42.333 -44 -63s-18.333 -48.167 -25 -82.5s-11.167 -75 -13.5 -122s-3.5 -109.5 -3.5 -187.5
c0 -146 5.5 -248.5 16.5 -307.5s34.167 -108.167 69.5 -147.5c26 -27.333 57.833 -48.833 95.5 -64.5s77.834 -23.5 120.501 -23.5c55.333 0 101.666 9.66699 138.999 29s77.666 50.666 120.999 93.999zM766 -131.002l-104 -301h-207l143 301h168z" />
    <glyph glyph-name="Egrave" unicode="&#xc8;" horiz-adv-x="1235" 
d="M1122 0h-932v1458h932v-198h-710v-426h606v-197h-606v-438h710v-199zM743 1600h-157l-228 332h232z" />
    <glyph glyph-name="Eacute" unicode="&#xc9;" horiz-adv-x="1235" 
d="M1122 0h-932v1458h932v-198h-710v-426h606v-197h-606v-438h710v-199zM916 1932l-228 -332h-157l153 332h232z" />
    <glyph glyph-name="Ecircumflex" unicode="&#xca;" horiz-adv-x="1235" 
d="M1122 0h-932v1458h932v-198h-710v-426h606v-197h-606v-438h710v-199zM989 1600h-174l-178 198l-178 -198h-174l264 329h176z" />
    <glyph glyph-name="Edieresis" unicode="&#xcb;" horiz-adv-x="1235" 
d="M1122 0h-932v1458h932v-198h-710v-426h606v-197h-606v-438h710v-199zM977 1719c0 -31.333 -11 -58.666 -33 -81.999s-49.333 -35 -82 -35c-30.667 0 -57.667 11.667 -81 35s-35 50.666 -35 81.999s11.667 58.166 35 80.499s50.333 33.5 81 33.5
c32 0 59.167 -11.167 81.5 -33.5s33.5 -49.166 33.5 -80.499zM528 1719c0 -31.333 -11.333 -58.668 -34 -82.001s-50 -35 -82 -35s-59.167 11.667 -81.5 35s-33.5 50.666 -33.5 81.999c0 30.667 11.333 57.334 34 80.001s49.667 34 81 34s58.5 -11.167 81.5 -33.5
s34.5 -49.166 34.5 -80.499z" />
    <glyph glyph-name="Igrave" unicode="&#xcc;" horiz-adv-x="602" 
d="M412 0h-222v1458h222v-1458zM440 1600h-157l-228 332h232z" />
    <glyph glyph-name="Iacute" unicode="&#xcd;" horiz-adv-x="602" 
d="M412 0h-222v1458h222v-1458zM549 1932l-228 -332h-157l153 332h232z" />
    <glyph glyph-name="Icircumflex" unicode="&#xce;" horiz-adv-x="602" 
d="M412 0h-222v1458h222v-1458zM643 1600h-174l-178 198l-178 -198h-174l264 329h176z" />
    <glyph glyph-name="Idieresis" unicode="&#xcf;" horiz-adv-x="602" 
d="M412 0h-222v1458h222v-1458zM637 1719c0 -31.333 -11 -58.666 -33 -81.999s-49.333 -35 -82 -35c-30.667 0 -57.667 11.667 -81 35s-35 50.666 -35 81.999s11.667 58.166 35 80.499s50.333 33.5 81 33.5c32 0 59.167 -11.167 81.5 -33.5s33.5 -49.166 33.5 -80.499z
M188 1719c0 -31.333 -11.333 -58.668 -34 -82.001s-50 -35 -82 -35s-59.167 11.667 -81.5 35s-33.5 50.666 -33.5 81.999c0 30.667 11.333 57.334 34 80.001s49.667 34 81 34s58.5 -11.167 81.5 -33.5s34.5 -49.166 34.5 -80.499z" />
    <glyph glyph-name="Eth" unicode="&#xd0;" horiz-adv-x="1401" 
d="M1264 729c0 -118 -2 -204.333 -6 -259s-13.667 -104 -29 -148s-40.666 -87 -75.999 -129c-49.333 -60.667 -109.333 -108 -180 -142s-150 -51 -238 -51h-506v651h-151v170h151v637h512c174.667 0 312 -64.667 412 -194c28.667 -37.333 50.167 -71.833 64.5 -103.5
s25.166 -68 32.499 -109s11.5 -83 12.5 -126s1.5 -108.5 1.5 -196.5zM1042 723c0 139.333 -3.66895 233.667 -11.002 283s-24.666 92.333 -51.999 129c-32.667 44.667 -69.667 77 -111 97s-92.333 30 -153 30h-264v-441h282v-170h-282v-454h264
c122.667 0 213.334 43 272.001 129c24 35.333 39.167 75.333 45.5 120s9.5 137 9.5 277z" />
    <glyph glyph-name="Ntilde" unicode="&#xd1;" horiz-adv-x="1477" 
d="M1288 0h-203l-673 1026v-1026h-222v1458h203l674 -1024v1024h221v-1458zM1085 1739c-29.333 -29.333 -56.001 -52.332 -80.001 -68.999s-46.167 -28.167 -66.5 -34.5s-42.5 -9.5 -66.5 -9.5c-27.333 0 -51.833 3.5 -73.5 10.5s-48.167 19.167 -79.5 36.5
c-44 26 -82.333 39 -115 39c-20.667 0 -39.167 -3.66699 -55.5 -11s-37.5 -24 -63.5 -50l-98 96c42.667 42.667 80 72.167 112 88.5s65.667 24.5 101 24.5c46 0 97 -16.333 153 -49c42.667 -26 80.334 -39 113.001 -39c19.333 0 38 4.16699 56 12.5s39.667 25.166 65 50.499
z" />
    <glyph glyph-name="Ograve" unicode="&#xd2;" horiz-adv-x="1323" 
d="M1186 729c0 -115.333 -2.16699 -203.503 -6.5 -264.503s-16.5 -118.333 -36.5 -172s-52 -103.5 -96 -149.5c-104.667 -103.333 -233 -155 -385 -155s-279.667 51.667 -383 155c-45.333 46.667 -78 96.334 -98 149.001s-32.333 109.834 -37 171.501s-7 150.167 -7 265.5
c0 88.667 1.16699 159 3.5 211s7.66602 99.667 15.999 143s22 83.833 41 121.5s46.167 74.5 81.5 110.5c103.333 103.333 231 155 383 155s280.333 -51.667 385 -155c44.667 -46.667 76.834 -96.5 96.501 -149.5s31.667 -110.167 36 -171.5s6.5 -149.666 6.5 -264.999z
M965 728.997c0 145.333 -5.49902 247.667 -16.499 307s-34.167 108 -69.5 146c-25.333 27.333 -57.5 49.166 -96.5 65.499s-79.167 24.5 -120.5 24.5c-42 0 -82.5 -8.16699 -121.5 -24.5s-71.167 -38.166 -96.5 -65.499c-35.333 -39.333 -58.5 -88.333 -69.5 -147
s-16.5 -160.667 -16.5 -306c0 -77.333 1.16699 -139.166 3.5 -185.499s6.83301 -86.833 13.5 -121.5s14.667 -61.667 24 -81s24.333 -41 45 -65c26.667 -28 59.167 -50 97.5 -66s78.5 -24 120.5 -24c88 0 160.333 30 217 90c24 26 42.167 55.667 54.5 89
s20.666 78.666 24.999 135.999s6.5 133.333 6.5 228zM768.001 1600h-157l-228 332h232z" />
    <glyph glyph-name="Oacute" unicode="&#xd3;" horiz-adv-x="1323" 
d="M1186 729c0 -115.333 -2.16699 -203.503 -6.5 -264.503s-16.5 -118.333 -36.5 -172s-52 -103.5 -96 -149.5c-104.667 -103.333 -233 -155 -385 -155s-279.667 51.667 -383 155c-45.333 46.667 -78 96.334 -98 149.001s-32.333 109.834 -37 171.501s-7 150.167 -7 265.5
c0 88.667 1.16699 159 3.5 211s7.66602 99.667 15.999 143s22 83.833 41 121.5s46.167 74.5 81.5 110.5c103.333 103.333 231 155 383 155s280.333 -51.667 385 -155c44.667 -46.667 76.834 -96.5 96.501 -149.5s31.667 -110.167 36 -171.5s6.5 -149.666 6.5 -264.999z
M965 728.997c0 145.333 -5.49902 247.667 -16.499 307s-34.167 108 -69.5 146c-25.333 27.333 -57.5 49.166 -96.5 65.499s-79.167 24.5 -120.5 24.5c-42 0 -82.5 -8.16699 -121.5 -24.5s-71.167 -38.166 -96.5 -65.499c-35.333 -39.333 -58.5 -88.333 -69.5 -147
s-16.5 -160.667 -16.5 -306c0 -77.333 1.16699 -139.166 3.5 -185.499s6.83301 -86.833 13.5 -121.5s14.667 -61.667 24 -81s24.333 -41 45 -65c26.667 -28 59.167 -50 97.5 -66s78.5 -24 120.5 -24c88 0 160.333 30 217 90c24 26 42.167 55.667 54.5 89
s20.666 78.666 24.999 135.999s6.5 133.333 6.5 228zM941.001 1932l-228 -332h-157l153 332h232z" />
    <glyph glyph-name="Ocircumflex" unicode="&#xd4;" horiz-adv-x="1323" 
d="M1186 729c0 -115.333 -2.16699 -203.503 -6.5 -264.503s-16.5 -118.333 -36.5 -172s-52 -103.5 -96 -149.5c-104.667 -103.333 -233 -155 -385 -155s-279.667 51.667 -383 155c-45.333 46.667 -78 96.334 -98 149.001s-32.333 109.834 -37 171.501s-7 150.167 -7 265.5
c0 88.667 1.16699 159 3.5 211s7.66602 99.667 15.999 143s22 83.833 41 121.5s46.167 74.5 81.5 110.5c103.333 103.333 231 155 383 155s280.333 -51.667 385 -155c44.667 -46.667 76.834 -96.5 96.501 -149.5s31.667 -110.167 36 -171.5s6.5 -149.666 6.5 -264.999z
M965 728.997c0 145.333 -5.49902 247.667 -16.499 307s-34.167 108 -69.5 146c-25.333 27.333 -57.5 49.166 -96.5 65.499s-79.167 24.5 -120.5 24.5c-42 0 -82.5 -8.16699 -121.5 -24.5s-71.167 -38.166 -96.5 -65.499c-35.333 -39.333 -58.5 -88.333 -69.5 -147
s-16.5 -160.667 -16.5 -306c0 -77.333 1.16699 -139.166 3.5 -185.499s6.83301 -86.833 13.5 -121.5s14.667 -61.667 24 -81s24.333 -41 45 -65c26.667 -28 59.167 -50 97.5 -66s78.5 -24 120.5 -24c88 0 160.333 30 217 90c24 26 42.167 55.667 54.5 89
s20.666 78.666 24.999 135.999s6.5 133.333 6.5 228zM1014 1600h-174l-178 198l-178 -198h-174l264 329h176z" />
    <glyph glyph-name="Otilde" unicode="&#xd5;" horiz-adv-x="1323" 
d="M1186 729c0 -115.333 -2.16699 -203.503 -6.5 -264.503s-16.5 -118.333 -36.5 -172s-52 -103.5 -96 -149.5c-104.667 -103.333 -233 -155 -385 -155s-279.667 51.667 -383 155c-45.333 46.667 -78 96.334 -98 149.001s-32.333 109.834 -37 171.501s-7 150.167 -7 265.5
c0 88.667 1.16699 159 3.5 211s7.66602 99.667 15.999 143s22 83.833 41 121.5s46.167 74.5 81.5 110.5c103.333 103.333 231 155 383 155s280.333 -51.667 385 -155c44.667 -46.667 76.834 -96.5 96.501 -149.5s31.667 -110.167 36 -171.5s6.5 -149.666 6.5 -264.999z
M965 728.997c0 145.333 -5.49902 247.667 -16.499 307s-34.167 108 -69.5 146c-25.333 27.333 -57.5 49.166 -96.5 65.499s-79.167 24.5 -120.5 24.5c-42 0 -82.5 -8.16699 -121.5 -24.5s-71.167 -38.166 -96.5 -65.499c-35.333 -39.333 -58.5 -88.333 -69.5 -147
s-16.5 -160.667 -16.5 -306c0 -77.333 1.16699 -139.166 3.5 -185.499s6.83301 -86.833 13.5 -121.5s14.667 -61.667 24 -81s24.333 -41 45 -65c26.667 -28 59.167 -50 97.5 -66s78.5 -24 120.5 -24c88 0 160.333 30 217 90c24 26 42.167 55.667 54.5 89
s20.666 78.666 24.999 135.999s6.5 133.333 6.5 228zM1008 1739c-29.333 -29.333 -56.001 -52.332 -80.001 -68.999s-46.167 -28.167 -66.5 -34.5s-42.5 -9.5 -66.5 -9.5c-27.333 0 -51.833 3.5 -73.5 10.5s-48.167 19.167 -79.5 36.5c-44 26 -82.333 39 -115 39
c-20.667 0 -39.167 -3.66699 -55.5 -11s-37.5 -24 -63.5 -50l-98 96c42.667 42.667 80 72.167 112 88.5s65.667 24.5 101 24.5c46 0 97 -16.333 153 -49c42.667 -26 80.334 -39 113.001 -39c19.333 0 38 4.16699 56 12.5s39.667 25.166 65 50.499z" />
    <glyph glyph-name="Odieresis" unicode="&#xd6;" horiz-adv-x="1323" 
d="M1186 729c0 -115.333 -2.16699 -203.503 -6.5 -264.503s-16.5 -118.333 -36.5 -172s-52 -103.5 -96 -149.5c-104.667 -103.333 -233 -155 -385 -155s-279.667 51.667 -383 155c-45.333 46.667 -78 96.334 -98 149.001s-32.333 109.834 -37 171.501s-7 150.167 -7 265.5
c0 88.667 1.16699 159 3.5 211s7.66602 99.667 15.999 143s22 83.833 41 121.5s46.167 74.5 81.5 110.5c103.333 103.333 231 155 383 155s280.333 -51.667 385 -155c44.667 -46.667 76.834 -96.5 96.501 -149.5s31.667 -110.167 36 -171.5s6.5 -149.666 6.5 -264.999z
M965 728.997c0 145.333 -5.49902 247.667 -16.499 307s-34.167 108 -69.5 146c-25.333 27.333 -57.5 49.166 -96.5 65.499s-79.167 24.5 -120.5 24.5c-42 0 -82.5 -8.16699 -121.5 -24.5s-71.167 -38.166 -96.5 -65.499c-35.333 -39.333 -58.5 -88.333 -69.5 -147
s-16.5 -160.667 -16.5 -306c0 -77.333 1.16699 -139.166 3.5 -185.499s6.83301 -86.833 13.5 -121.5s14.667 -61.667 24 -81s24.333 -41 45 -65c26.667 -28 59.167 -50 97.5 -66s78.5 -24 120.5 -24c88 0 160.333 30 217 90c24 26 42.167 55.667 54.5 89
s20.666 78.666 24.999 135.999s6.5 133.333 6.5 228zM1002 1719c0 -31.333 -11 -58.666 -33 -81.999s-49.333 -35 -82 -35c-30.667 0 -57.667 11.667 -81 35s-35 50.666 -35 81.999s11.667 58.166 35 80.499s50.333 33.5 81 33.5c32 0 59.167 -11.167 81.5 -33.5
s33.5 -49.166 33.5 -80.499zM553.001 1719c0 -31.333 -11.333 -58.668 -34 -82.001s-50 -35 -82 -35s-59.167 11.667 -81.5 35s-33.5 50.666 -33.5 81.999c0 30.667 11.333 57.334 34 80.001s49.667 34 81 34s58.5 -11.167 81.5 -33.5s34.5 -49.166 34.5 -80.499z" />
    <glyph glyph-name="multiply" unicode="&#xd7;" horiz-adv-x="1092" 
d="M975 270l-131 -129l-299 297l-297 -297l-131 129l299 299l-299 299l131 131l297 -299l299 299l131 -131l-299 -299z" />
    <glyph glyph-name="Oslash" unicode="&#xd8;" horiz-adv-x="1335" 
d="M1186 729c0 -115.333 -2.16797 -203.503 -6.50098 -264.503s-16.5 -118.333 -36.5 -172s-52 -103.5 -96 -149.5c-104.667 -103.333 -233 -155 -385 -155c-88 0 -169.333 18.333 -244 55l-64 -133h-168l105 221l-6 6l-6 6c-45.333 46.667 -78 96.334 -98 149.001
s-32.333 109.834 -37 171.501s-7 150.167 -7 265.5c0 88.667 1.16699 159 3.5 211s7.66602 99.667 15.999 143s22 83.833 41 121.5s46.167 74.5 81.5 110.5c103.333 103.333 231 155 383 155c88.667 0 170.334 -18.333 245.001 -55l62 133h170l-107 -221l15 -12
c44.667 -46.667 76.834 -96.5 96.501 -149.5s31.667 -110.167 36 -171.5s6.5 -149.666 6.5 -264.999zM824.999 1227c-50.667 30 -105.001 44.998 -163.001 44.998c-41.333 0 -81.166 -8 -119.499 -24s-70.5 -38 -96.5 -66c-35.333 -39.333 -58.5 -88.333 -69.5 -147
s-16.5 -160.667 -16.5 -306c0 -111.333 3 -195.666 9 -252.999s16.667 -102.666 32 -135.999zM964.998 728.995c0 112.667 -2.83203 197.668 -8.49902 255.001s-16.5 102 -32.5 134l-424 -887c48 -30 102 -45 162 -45c88 0 160.333 30 217 90c24 26 42.167 55.667 54.5 89
s20.666 78.666 24.999 135.999s6.5 133.333 6.5 228z" />
    <glyph glyph-name="Ugrave" unicode="&#xd9;" horiz-adv-x="1382" 
d="M1214 492c0 -98.667 -22.6689 -186.333 -68.002 -263s-107.833 -136 -187.5 -178s-169.167 -63 -268.5 -63c-98.667 0 -187.667 21 -267 63s-141.666 101.333 -186.999 178s-68 164.334 -68 263.001v966h221v-956c0 -64 12.333 -119.833 37 -167.5
s59.667 -84.334 105 -110.001s98.333 -38.5 159 -38.5s113.834 12.833 159.501 38.5s81 62.167 106 109.5s37.5 103.333 37.5 168v956h221v-966zM797.998 1600h-157l-228 332h232z" />
    <glyph glyph-name="Uacute" unicode="&#xda;" horiz-adv-x="1382" 
d="M1214 492c0 -98.667 -22.6689 -186.333 -68.002 -263s-107.833 -136 -187.5 -178s-169.167 -63 -268.5 -63c-98.667 0 -187.667 21 -267 63s-141.666 101.333 -186.999 178s-68 164.334 -68 263.001v966h221v-956c0 -64 12.333 -119.833 37 -167.5
s59.667 -84.334 105 -110.001s98.333 -38.5 159 -38.5s113.834 12.833 159.501 38.5s81 62.167 106 109.5s37.5 103.333 37.5 168v956h221v-966zM970.998 1932l-228 -332h-157l153 332h232z" />
    <glyph glyph-name="Ucircumflex" unicode="&#xdb;" horiz-adv-x="1382" 
d="M1214 492c0 -98.667 -22.6689 -186.333 -68.002 -263s-107.833 -136 -187.5 -178s-169.167 -63 -268.5 -63c-98.667 0 -187.667 21 -267 63s-141.666 101.333 -186.999 178s-68 164.334 -68 263.001v966h221v-956c0 -64 12.333 -119.833 37 -167.5
s59.667 -84.334 105 -110.001s98.333 -38.5 159 -38.5s113.834 12.833 159.501 38.5s81 62.167 106 109.5s37.5 103.333 37.5 168v956h221v-966zM1044 1600h-174l-178 198l-178 -198h-174l264 329h176z" />
    <glyph glyph-name="Udieresis" unicode="&#xdc;" horiz-adv-x="1382" 
d="M1214 492c0 -98.667 -22.6689 -186.333 -68.002 -263s-107.833 -136 -187.5 -178s-169.167 -63 -268.5 -63c-98.667 0 -187.667 21 -267 63s-141.666 101.333 -186.999 178s-68 164.334 -68 263.001v966h221v-956c0 -64 12.333 -119.833 37 -167.5
s59.667 -84.334 105 -110.001s98.333 -38.5 159 -38.5s113.834 12.833 159.501 38.5s81 62.167 106 109.5s37.5 103.333 37.5 168v956h221v-966zM1032 1719c0 -31.333 -11 -58.666 -33 -81.999s-49.333 -35 -82 -35c-30.667 0 -57.667 11.667 -81 35s-35 50.666 -35 81.999
s11.667 58.166 35 80.499s50.333 33.5 81 33.5c32 0 59.167 -11.167 81.5 -33.5s33.5 -49.166 33.5 -80.499zM582.998 1719c0 -31.333 -11.333 -58.668 -34 -82.001s-50 -35 -82 -35s-59.167 11.667 -81.5 35s-33.5 50.666 -33.5 81.999c0 30.667 11.333 57.334 34 80.001
s49.667 34 81 34s58.5 -11.167 81.5 -33.5s34.5 -49.166 34.5 -80.499z" />
    <glyph glyph-name="Yacute" unicode="&#xdd;" horiz-adv-x="1114" 
d="M1104 1458l-436 -858v-600h-222v600l-436 858h242l305 -641l305 641h242zM834 1932l-228 -332h-157l153 332h232z" />
    <glyph glyph-name="Thorn" unicode="&#xde;" horiz-adv-x="1305" 
d="M1210 735c0 -64 -10.8311 -122.668 -32.498 -176.001s-52.834 -99.5 -93.501 -138.5s-90.5 -69.667 -149.5 -92s-122.833 -33.5 -191.5 -33.5h-331v-295h-222v1458h222v-280h331c68.667 0 132.667 -11.167 192 -33.5s109.166 -53.166 149.499 -92.499s71.333 -86 93 -140
s32.5 -113 32.5 -177zM987.002 734.999c0 76 -23.333 135.667 -70 179s-109.334 65 -188.001 65h-317v-485h317c78.667 0 141.334 21.333 188.001 64s70 101.667 70 177z" />
    <glyph glyph-name="germandbls" unicode="&#xdf;" horiz-adv-x="1157" 
d="M1026 311c0 -102 -28 -179.001 -84 -231.001c-57.333 -53.333 -135 -80 -233 -80h-109v178h66c23.333 0 43.166 2.66699 59.499 8s31.833 14.333 46.5 27c28.667 22.667 43 61.667 43 117v319c0 50 -12.333 86.333 -37 109c-26 26 -61.333 39 -106 39h-72v166h64
c44.667 0 81 13.333 109 40s42 64.334 42 113.001c0 50 -17 91 -51 123c-34.667 32.667 -90 49 -166 49c-147.333 0 -221 -77 -221 -231v-1057h-211v1069c0 87.333 18.333 161.5 55 222.5s88 106.5 154 136.5s142.333 45 229 45c81.333 0 153.5 -12.667 216.5 -38
s112.667 -64.333 149 -117s54.5 -118 54.5 -196c0 -104 -42.333 -183 -127 -237c44.667 -22.667 77.334 -51.667 98.001 -87s31 -85 31 -149v-338z" />
    <glyph glyph-name="agrave" unicode="&#xe0;" horiz-adv-x="1085" 
d="M930 0h-205.003v94c-38 -38 -77.667 -65.167 -119 -81.5s-93.666 -24.5 -156.999 -24.5c-62.667 0 -117 7.83301 -163 23.5s-84.667 39.167 -116 70.5c-54.667 56.667 -82 131 -82 223c0 59.333 13.667 111.5 41 156.5s67.833 80 121.5 105s118.834 37.5 195.501 37.5
h275v74c0 66.667 -18 115.667 -54 147s-93.667 47 -173 47c-58 0 -103.167 -7.33301 -135.5 -22s-63.166 -40.667 -92.499 -78l-137 129c47.333 56 99.333 95 156 117s129 33 217 33c285.333 0 428 -119 428 -357v-694zM720.997 375l0.000976562 84h-244
c-60.667 0 -106.834 -13 -138.501 -39s-47.5 -63 -47.5 -111c0 -98 63.333 -147 190 -147c44.667 0 82 3.83301 112 11.5s57.667 23.5 83 47.5c30 30 45 81.333 45 154zM631.998 1227h-157l-228 332h232z" />
    <glyph glyph-name="aacute" unicode="&#xe1;" horiz-adv-x="1085" 
d="M930 0h-205.003v94c-38 -38 -77.667 -65.167 -119 -81.5s-93.666 -24.5 -156.999 -24.5c-62.667 0 -117 7.83301 -163 23.5s-84.667 39.167 -116 70.5c-54.667 56.667 -82 131 -82 223c0 59.333 13.667 111.5 41 156.5s67.833 80 121.5 105s118.834 37.5 195.501 37.5
h275v74c0 66.667 -18 115.667 -54 147s-93.667 47 -173 47c-58 0 -103.167 -7.33301 -135.5 -22s-63.166 -40.667 -92.499 -78l-137 129c47.333 56 99.333 95 156 117s129 33 217 33c285.333 0 428 -119 428 -357v-694zM720.997 375l0.000976562 84h-244
c-60.667 0 -106.834 -13 -138.501 -39s-47.5 -63 -47.5 -111c0 -98 63.333 -147 190 -147c44.667 0 82 3.83301 112 11.5s57.667 23.5 83 47.5c30 30 45 81.333 45 154zM804.998 1559l-228 -332h-157l153 332h232z" />
    <glyph glyph-name="acircumflex" unicode="&#xe2;" horiz-adv-x="1085" 
d="M930 0h-205.003v94c-38 -38 -77.667 -65.167 -119 -81.5s-93.666 -24.5 -156.999 -24.5c-62.667 0 -117 7.83301 -163 23.5s-84.667 39.167 -116 70.5c-54.667 56.667 -82 131 -82 223c0 59.333 13.667 111.5 41 156.5s67.833 80 121.5 105s118.834 37.5 195.501 37.5
h275v74c0 66.667 -18 115.667 -54 147s-93.667 47 -173 47c-58 0 -103.167 -7.33301 -135.5 -22s-63.166 -40.667 -92.499 -78l-137 129c47.333 56 99.333 95 156 117s129 33 217 33c285.333 0 428 -119 428 -357v-694zM720.997 375l0.000976562 84h-244
c-60.667 0 -106.834 -13 -138.501 -39s-47.5 -63 -47.5 -111c0 -98 63.333 -147 190 -147c44.667 0 82 3.83301 112 11.5s57.667 23.5 83 47.5c30 30 45 81.333 45 154zM877.998 1227h-174l-178 198l-178 -198h-174l264 329h176z" />
    <glyph glyph-name="atilde" unicode="&#xe3;" horiz-adv-x="1085" 
d="M930 0h-205.003v94c-38 -38 -77.667 -65.167 -119 -81.5s-93.666 -24.5 -156.999 -24.5c-62.667 0 -117 7.83301 -163 23.5s-84.667 39.167 -116 70.5c-54.667 56.667 -82 131 -82 223c0 59.333 13.667 111.5 41 156.5s67.833 80 121.5 105s118.834 37.5 195.501 37.5
h275v74c0 66.667 -18 115.667 -54 147s-93.667 47 -173 47c-58 0 -103.167 -7.33301 -135.5 -22s-63.166 -40.667 -92.499 -78l-137 129c47.333 56 99.333 95 156 117s129 33 217 33c285.333 0 428 -119 428 -357v-694zM720.997 375l0.000976562 84h-244
c-60.667 0 -106.834 -13 -138.501 -39s-47.5 -63 -47.5 -111c0 -98 63.333 -147 190 -147c44.667 0 82 3.83301 112 11.5s57.667 23.5 83 47.5c30 30 45 81.333 45 154zM871.998 1366c-29.333 -29.333 -56.001 -52.332 -80.001 -68.999s-46.167 -28.167 -66.5 -34.5
s-42.5 -9.5 -66.5 -9.5c-27.333 0 -51.833 3.5 -73.5 10.5s-48.167 19.167 -79.5 36.5c-44 26 -82.333 39 -115 39c-20.667 0 -39.167 -3.66699 -55.5 -11s-37.5 -24 -63.5 -50l-98 96c42.667 42.667 80 72.167 112 88.5s65.667 24.5 101 24.5c46 0 97 -16.333 153 -49
c42.667 -26 80.334 -39 113.001 -39c19.333 0 38 4.16699 56 12.5s39.667 25.166 65 50.499z" />
    <glyph glyph-name="adieresis" unicode="&#xe4;" horiz-adv-x="1085" 
d="M930 0h-205.003v94c-38 -38 -77.667 -65.167 -119 -81.5s-93.666 -24.5 -156.999 -24.5c-62.667 0 -117 7.83301 -163 23.5s-84.667 39.167 -116 70.5c-54.667 56.667 -82 131 -82 223c0 59.333 13.667 111.5 41 156.5s67.833 80 121.5 105s118.834 37.5 195.501 37.5
h275v74c0 66.667 -18 115.667 -54 147s-93.667 47 -173 47c-58 0 -103.167 -7.33301 -135.5 -22s-63.166 -40.667 -92.499 -78l-137 129c47.333 56 99.333 95 156 117s129 33 217 33c285.333 0 428 -119 428 -357v-694zM720.997 375l0.000976562 84h-244
c-60.667 0 -106.834 -13 -138.501 -39s-47.5 -63 -47.5 -111c0 -98 63.333 -147 190 -147c44.667 0 82 3.83301 112 11.5s57.667 23.5 83 47.5c30 30 45 81.333 45 154zM865.998 1346c0 -31.333 -11 -58.666 -33 -81.999s-49.333 -35 -82 -35
c-30.667 0 -57.667 11.667 -81 35s-35 50.666 -35 81.999s11.667 58.166 35 80.499s50.333 33.5 81 33.5c32 0 59.167 -11.167 81.5 -33.5s33.5 -49.166 33.5 -80.499zM416.998 1346c0 -31.333 -11.333 -58.668 -34 -82.001s-50 -35 -82 -35s-59.167 11.667 -81.5 35
s-33.5 50.666 -33.5 81.999c0 30.667 11.333 57.334 34 80.001s49.667 34 81 34s58.5 -11.167 81.5 -33.5s34.5 -49.166 34.5 -80.499z" />
    <glyph glyph-name="aring" unicode="&#xe5;" horiz-adv-x="1085" 
d="M930 0h-205.003v94c-38 -38 -77.667 -65.167 -119 -81.5s-93.666 -24.5 -156.999 -24.5c-62.667 0 -117 7.83301 -163 23.5s-84.667 39.167 -116 70.5c-54.667 56.667 -82 131 -82 223c0 59.333 13.667 111.5 41 156.5s67.833 80 121.5 105s118.834 37.5 195.501 37.5
h275v74c0 66.667 -18 115.667 -54 147s-93.667 47 -173 47c-58 0 -103.167 -7.33301 -135.5 -22s-63.166 -40.667 -92.499 -78l-137 129c47.333 56 99.333 95 156 117s129 33 217 33c285.333 0 428 -119 428 -357v-694zM720.997 375l0.000976562 84h-244
c-60.667 0 -106.834 -13 -138.501 -39s-47.5 -63 -47.5 -111c0 -98 63.333 -147 190 -147c44.667 0 82 3.83301 112 11.5s57.667 23.5 83 47.5c30 30 45 81.333 45 154zM781.998 1436c0 -46 -11.5 -88.667 -34.5 -128s-54.167 -70.5 -93.5 -93.5s-82 -34.5 -128 -34.5
s-88.667 11.5 -128 34.5s-70.5 54.167 -93.5 93.5s-34.5 82 -34.5 128s11.5 88.667 34.5 128s54.167 70.5 93.5 93.5s82 34.5 128 34.5s88.667 -11.5 128 -34.5s70.5 -54.167 93.5 -93.5s34.5 -82 34.5 -128zM656.998 1436c0 36 -12.5 66.501 -37.5 91.501
s-56.167 37.5 -93.5 37.5c-36.667 0 -67.667 -12.667 -93 -38s-38 -55.666 -38 -90.999c0 -34.667 12.833 -64.834 38.5 -90.501s56.5 -38.5 92.5 -38.5c36.667 0 67.667 12.667 93 38s38 55.666 38 90.999z" />
    <glyph glyph-name="ae" unicode="&#xe6;" horiz-adv-x="1714" 
d="M1602 459h-674.003c0 -59.333 10.167 -110.833 30.5 -154.5s50 -77.334 89 -101.001s87.167 -35.5 144.5 -35.5s103.666 8 138.999 24s73 43.333 113 82l133 -124c-56.667 -56.667 -114 -97.834 -172 -123.501s-130.333 -38.5 -217 -38.5c-164.667 0 -287 54 -367 162
c-36.667 -44.667 -72.5 -78.167 -107.5 -100.5s-74.167 -38.166 -117.5 -47.499s-92.333 -14 -147 -14c-64 0 -118.5 7.66699 -163.5 23s-83.5 39 -115.5 71c-54.667 56.667 -82 131 -82 223c0 59.333 13.667 111.5 41 156.5s67.833 80 121.5 105s118.834 37.5 195.501 37.5
h275v74c0 66.667 -18 115.667 -54 147s-93.667 47 -173 47c-58 0 -103.167 -7.33301 -135.5 -22s-63.166 -40.667 -92.499 -78l-137 129c47.333 56 99.333 95 156 117s129 33 217 33c84.667 0 156.834 -11.667 216.501 -35s104.834 -57.666 135.501 -102.999
c74.667 92 177 138 307 138c90 0 168.667 -21 236 -63s118.333 -100.833 153 -176.5s52 -162.5 52 -260.5v-92zM1395 604c-2 58 -11.001 105 -27.001 141c-16.667 40 -43 72 -79 96s-78.667 36 -128 36c-48.667 0 -90.5 -11.833 -125.5 -35.5s-61.5 -55.834 -79.5 -96.501
c-8.66699 -19.333 -15.167 -39.666 -19.5 -60.999s-7.16602 -48 -8.49902 -80h467zM720.996 375l0.000976562 84h-244c-60.667 0 -106.834 -13 -138.501 -39s-47.5 -63 -47.5 -111c0 -98 63.333 -147 190 -147c44.667 0 82 3.83301 112 11.5s57.667 23.5 83 47.5
c30 30 45 81.333 45 154z" />
    <glyph glyph-name="ccedilla" unicode="&#xe7;" horiz-adv-x="999" 
d="M918 135c-31.333 -33.333 -64.667 -61.165 -100 -83.498s-72.666 -38.5 -111.999 -48.5s-83 -15 -131 -15c-81.333 0 -157.166 18 -227.499 54s-127 94 -170 174s-64.5 181.333 -64.5 304c0 94 12.667 175 38 243s59.666 123.333 102.999 166s92.666 73.667 147.999 93
s113 29 173 29c73.333 0 136.833 -11.333 190.5 -34s104.5 -60 152.5 -112l-144 -139c-32 36 -62.667 61.333 -92 76s-65 22 -107 22c-81.333 0 -145.333 -30.667 -192 -92c-22.667 -28.667 -38.5 -62.334 -47.5 -101.001s-13.5 -89 -13.5 -151
c0 -116.667 20.333 -201.334 61 -254.001c46.667 -61.333 110.667 -92 192 -92c40.667 0 76 7.5 106 22.5s61 40.167 93 75.5zM652.999 -130.999l-104 -301h-207l143 301h168z" />
    <glyph glyph-name="egrave" unicode="&#xe8;" horiz-adv-x="1104" 
d="M993 459l-674.001 0.00195312c0 -60.667 10.333 -112.5 31 -155.5s50.5 -76.333 89.5 -100s87.167 -35.5 144.5 -35.5s103.666 8 138.999 24s73 43.333 113 82l133 -124c-56.667 -56.667 -114 -97.834 -172 -123.501s-130.333 -38.5 -217 -38.5
c-66.667 0 -128.5 9.66699 -185.5 29s-106.5 50 -148.5 92s-74.667 97 -98 165s-35 150 -35 246c0 111.333 18.167 206.666 54.5 285.999s87.5 140 153.5 182s143.333 63 232 63c90.667 0 169.334 -21 236.001 -63s117.334 -100.833 152.001 -176.5s52 -162.5 52 -260.5v-92
zM785.999 604.002c-2 54 -11.332 100.999 -27.999 140.999s-42.834 72 -78.501 96s-77.834 36 -126.501 36c-48 0 -90.167 -12 -126.5 -36s-63.166 -56 -80.499 -96c-9.33301 -21.333 -15.5 -40.166 -18.5 -56.499s-5.83301 -44.5 -8.5 -84.5h467zM665 1227h-157l-228 332
h232z" />
    <glyph glyph-name="eacute" unicode="&#xe9;" horiz-adv-x="1104" 
d="M993 459l-674.001 0.00195312c0 -60.667 10.333 -112.5 31 -155.5s50.5 -76.333 89.5 -100s87.167 -35.5 144.5 -35.5s103.666 8 138.999 24s73 43.333 113 82l133 -124c-56.667 -56.667 -114 -97.834 -172 -123.501s-130.333 -38.5 -217 -38.5
c-66.667 0 -128.5 9.66699 -185.5 29s-106.5 50 -148.5 92s-74.667 97 -98 165s-35 150 -35 246c0 111.333 18.167 206.666 54.5 285.999s87.5 140 153.5 182s143.333 63 232 63c90.667 0 169.334 -21 236.001 -63s117.334 -100.833 152.001 -176.5s52 -162.5 52 -260.5v-92
zM785.999 604.002c-2 54 -11.332 100.999 -27.999 140.999s-42.834 72 -78.501 96s-77.834 36 -126.501 36c-48 0 -90.167 -12 -126.5 -36s-63.166 -56 -80.499 -96c-9.33301 -21.333 -15.5 -40.166 -18.5 -56.499s-5.83301 -44.5 -8.5 -84.5h467zM838 1559l-228 -332h-157
l153 332h232z" />
    <glyph glyph-name="ecircumflex" unicode="&#xea;" horiz-adv-x="1104" 
d="M993 459l-674.001 0.00195312c0 -60.667 10.333 -112.5 31 -155.5s50.5 -76.333 89.5 -100s87.167 -35.5 144.5 -35.5s103.666 8 138.999 24s73 43.333 113 82l133 -124c-56.667 -56.667 -114 -97.834 -172 -123.501s-130.333 -38.5 -217 -38.5
c-66.667 0 -128.5 9.66699 -185.5 29s-106.5 50 -148.5 92s-74.667 97 -98 165s-35 150 -35 246c0 111.333 18.167 206.666 54.5 285.999s87.5 140 153.5 182s143.333 63 232 63c90.667 0 169.334 -21 236.001 -63s117.334 -100.833 152.001 -176.5s52 -162.5 52 -260.5v-92
zM785.999 604.002c-2 54 -11.332 100.999 -27.999 140.999s-42.834 72 -78.501 96s-77.834 36 -126.501 36c-48 0 -90.167 -12 -126.5 -36s-63.166 -56 -80.499 -96c-9.33301 -21.333 -15.5 -40.166 -18.5 -56.499s-5.83301 -44.5 -8.5 -84.5h467zM911 1227h-174l-178 198
l-178 -198h-174l264 329h176z" />
    <glyph glyph-name="edieresis" unicode="&#xeb;" horiz-adv-x="1104" 
d="M993 459l-674.001 0.00195312c0 -60.667 10.333 -112.5 31 -155.5s50.5 -76.333 89.5 -100s87.167 -35.5 144.5 -35.5s103.666 8 138.999 24s73 43.333 113 82l133 -124c-56.667 -56.667 -114 -97.834 -172 -123.501s-130.333 -38.5 -217 -38.5
c-66.667 0 -128.5 9.66699 -185.5 29s-106.5 50 -148.5 92s-74.667 97 -98 165s-35 150 -35 246c0 111.333 18.167 206.666 54.5 285.999s87.5 140 153.5 182s143.333 63 232 63c90.667 0 169.334 -21 236.001 -63s117.334 -100.833 152.001 -176.5s52 -162.5 52 -260.5v-92
zM785.999 604.002c-2 54 -11.332 100.999 -27.999 140.999s-42.834 72 -78.501 96s-77.834 36 -126.501 36c-48 0 -90.167 -12 -126.5 -36s-63.166 -56 -80.499 -96c-9.33301 -21.333 -15.5 -40.166 -18.5 -56.499s-5.83301 -44.5 -8.5 -84.5h467zM899 1346
c0 -31.333 -11 -58.666 -33 -81.999s-49.333 -35 -82 -35c-30.667 0 -57.667 11.667 -81 35s-35 50.666 -35 81.999s11.667 58.166 35 80.499s50.333 33.5 81 33.5c32 0 59.167 -11.167 81.5 -33.5s33.5 -49.166 33.5 -80.499zM450 1346
c0 -31.333 -11.333 -58.668 -34 -82.001s-50 -35 -82 -35s-59.167 11.667 -81.5 35s-33.5 50.666 -33.5 81.999c0 30.667 11.333 57.334 34 80.001s49.667 34 81 34s58.5 -11.167 81.5 -33.5s34.5 -49.166 34.5 -80.499z" />
    <glyph glyph-name="igrave" unicode="&#xec;" horiz-adv-x="541" 
d="M375 0h-209v1038h209v-1038zM415 1227h-157l-228 332h232z" />
    <glyph glyph-name="iacute" unicode="&#xed;" horiz-adv-x="541" 
d="M375 0h-209v1038h209v-1038zM521 1559l-228 -332h-157l153 332h232z" />
    <glyph glyph-name="icircumflex" unicode="&#xee;" horiz-adv-x="541" 
d="M375 0h-209v1038h209v-1038zM618 1227h-174l-178 198l-178 -198h-174l264 329h176z" />
    <glyph glyph-name="idieresis" unicode="&#xef;" horiz-adv-x="541" 
d="M375 0h-209v1038h209v-1038zM606 1346c0 -31.333 -11 -58.666 -33 -81.999s-49.333 -35 -82 -35c-30.667 0 -57.667 11.667 -81 35s-35 50.666 -35 81.999s11.667 58.166 35 80.499s50.333 33.5 81 33.5c32 0 59.167 -11.167 81.5 -33.5s33.5 -49.166 33.5 -80.499z
M157 1346c0 -31.333 -11.333 -58.668 -34 -82.001s-50 -35 -82 -35s-59.167 11.667 -81.5 35s-33.5 50.666 -33.5 81.999c0 30.667 11.333 57.334 34 80.001s49.667 34 81 34s58.5 -11.167 81.5 -33.5s34.5 -49.166 34.5 -80.499z" />
    <glyph glyph-name="eth" unicode="&#xf0;" horiz-adv-x="1100" 
d="M975 510c0 -92.667 -8.66699 -171.001 -26 -235.001s-49 -119.333 -95 -166c-76 -80.667 -177.667 -121 -305 -121s-228.333 40.333 -303 121c-30.667 30.667 -55.167 66.334 -73.5 107.001s-30.833 84 -37.5 130s-10 100.667 -10 164c0 92 8.33301 169.833 25 233.5
s48.667 119.5 96 167.5c51.333 54.667 122.333 89.667 213 105c22 4 45 6 69 6c28.667 0 57.334 -3.33301 86.001 -10l-92 166h-237v147h159l-79 143h221l80 -143h178v-147h-103l105 -193c33.333 -61.333 59.666 -116.5 78.999 -165.5s32.5 -97.167 39.5 -144.5
s10.5 -102.333 10.5 -165zM766 509.999c0 40 -1.49902 76.668 -4.49902 110.001s-9.5 64.5 -19.5 93.5s-24.667 53.167 -44 72.5c-38.667 40 -88.334 60 -149.001 60c-58.667 0 -108 -20 -148 -60c-27.333 -28.667 -45.333 -65.834 -54 -111.501s-13 -100.5 -13 -164.5
c0 -40.667 1.5 -77.5 4.5 -110.5s9.5 -64.167 19.5 -93.5s24.333 -53.666 43 -72.999c40.667 -39.333 90 -59 148 -59c60 0 109.667 19.667 149 59c19.333 19.333 34 43.666 44 72.999s16.5 60.5 19.5 93.5s4.5 69.833 4.5 110.5z" />
    <glyph glyph-name="ntilde" unicode="&#xf1;" horiz-adv-x="1163" 
d="M1008 0l-209.002 -0.000976562v633c0 52 -9.16699 95.333 -27.5 130s-43.166 60.167 -74.499 76.5s-67 24.5 -107 24.5c-62.667 0 -114.167 -19.5 -154.5 -58.5s-60.5 -96.5 -60.5 -172.5v-633h-209v1038h205v-104c34.667 38 76.334 67 125.001 87s99 30 151 30
c106 0 191.333 -31.667 256 -95c70 -67.333 105 -164.666 105 -291.999v-664zM933.998 1366c-29.333 -29.333 -56.001 -52.332 -80.001 -68.999s-46.167 -28.167 -66.5 -34.5s-42.5 -9.5 -66.5 -9.5c-27.333 0 -51.833 3.5 -73.5 10.5s-48.167 19.167 -79.5 36.5
c-44 26 -82.333 39 -115 39c-20.667 0 -39.167 -3.66699 -55.5 -11s-37.5 -24 -63.5 -50l-98 96c42.667 42.667 80 72.167 112 88.5s65.667 24.5 101 24.5c46 0 97 -16.333 153 -49c42.667 -26 80.334 -39 113.001 -39c19.333 0 38 4.16699 56 12.5s39.667 25.166 65 50.499
z" />
    <glyph glyph-name="ograve" unicode="&#xf2;" horiz-adv-x="1100" 
d="M983 520c0 -96 -8.66699 -175.997 -26 -239.997s-49.666 -120.333 -96.999 -169c-78.667 -82 -182.334 -123 -311.001 -123c-127.333 0 -230.333 41 -309 123c-46.667 48.667 -78.834 105.167 -96.501 169.5s-26.5 144.166 -26.5 239.499c0 93.333 9 172.666 27 237.999
s50 122 96 170c22.667 24 49 45 79 63s64.833 32.5 104.5 43.5s81.5 16.5 125.5 16.5c68.667 0 129 -11.333 181 -34s95.333 -52.334 130 -89.001c46.667 -48.667 78.834 -105.167 96.501 -169.5s26.5 -143.833 26.5 -238.5zM774 520.003c0 68 -4.66699 125.167 -14 171.5
s-28.666 84.166 -57.999 113.499c-38 39.333 -89 59 -153 59c-62 0 -112.667 -19.667 -152 -59c-28.667 -29.333 -47.667 -67.166 -57 -113.499s-14 -103.5 -14 -171.5c0 -67.333 4.66699 -124.166 14 -170.499s28.333 -84.166 57 -113.499c41.333 -41.333 92 -62 152 -62
c62 0 113 20.667 153 62c29.333 29.333 48.666 67.166 57.999 113.499s14 103.166 14 170.499zM641 1227h-157l-228 332h232z" />
    <glyph glyph-name="oacute" unicode="&#xf3;" horiz-adv-x="1100" 
d="M983 520c0 -96 -8.66699 -175.997 -26 -239.997s-49.666 -120.333 -96.999 -169c-78.667 -82 -182.334 -123 -311.001 -123c-127.333 0 -230.333 41 -309 123c-46.667 48.667 -78.834 105.167 -96.501 169.5s-26.5 144.166 -26.5 239.499c0 93.333 9 172.666 27 237.999
s50 122 96 170c22.667 24 49 45 79 63s64.833 32.5 104.5 43.5s81.5 16.5 125.5 16.5c68.667 0 129 -11.333 181 -34s95.333 -52.334 130 -89.001c46.667 -48.667 78.834 -105.167 96.501 -169.5s26.5 -143.833 26.5 -238.5zM774 520.003c0 68 -4.66699 125.167 -14 171.5
s-28.666 84.166 -57.999 113.499c-38 39.333 -89 59 -153 59c-62 0 -112.667 -19.667 -152 -59c-28.667 -29.333 -47.667 -67.166 -57 -113.499s-14 -103.5 -14 -171.5c0 -67.333 4.66699 -124.166 14 -170.499s28.333 -84.166 57 -113.499c41.333 -41.333 92 -62 152 -62
c62 0 113 20.667 153 62c29.333 29.333 48.666 67.166 57.999 113.499s14 103.166 14 170.499zM828 1559l-228 -332h-157l153 332h232z" />
    <glyph glyph-name="ocircumflex" unicode="&#xf4;" horiz-adv-x="1100" 
d="M983 520c0 -96 -8.66699 -175.997 -26 -239.997s-49.666 -120.333 -96.999 -169c-78.667 -82 -182.334 -123 -311.001 -123c-127.333 0 -230.333 41 -309 123c-46.667 48.667 -78.834 105.167 -96.501 169.5s-26.5 144.166 -26.5 239.499c0 93.333 9 172.666 27 237.999
s50 122 96 170c22.667 24 49 45 79 63s64.833 32.5 104.5 43.5s81.5 16.5 125.5 16.5c68.667 0 129 -11.333 181 -34s95.333 -52.334 130 -89.001c46.667 -48.667 78.834 -105.167 96.501 -169.5s26.5 -143.833 26.5 -238.5zM774 520.003c0 68 -4.66699 125.167 -14 171.5
s-28.666 84.166 -57.999 113.499c-38 39.333 -89 59 -153 59c-62 0 -112.667 -19.667 -152 -59c-28.667 -29.333 -47.667 -67.166 -57 -113.499s-14 -103.5 -14 -171.5c0 -67.333 4.66699 -124.166 14 -170.499s28.333 -84.166 57 -113.499c41.333 -41.333 92 -62 152 -62
c62 0 113 20.667 153 62c29.333 29.333 48.666 67.166 57.999 113.499s14 103.166 14 170.499zM901 1227h-174l-178 198l-178 -198h-174l264 329h176z" />
    <glyph glyph-name="otilde" unicode="&#xf5;" horiz-adv-x="1100" 
d="M983 520c0 -96 -8.66699 -175.997 -26 -239.997s-49.666 -120.333 -96.999 -169c-78.667 -82 -182.334 -123 -311.001 -123c-127.333 0 -230.333 41 -309 123c-46.667 48.667 -78.834 105.167 -96.501 169.5s-26.5 144.166 -26.5 239.499c0 93.333 9 172.666 27 237.999
s50 122 96 170c22.667 24 49 45 79 63s64.833 32.5 104.5 43.5s81.5 16.5 125.5 16.5c68.667 0 129 -11.333 181 -34s95.333 -52.334 130 -89.001c46.667 -48.667 78.834 -105.167 96.501 -169.5s26.5 -143.833 26.5 -238.5zM774 520.003c0 68 -4.66699 125.167 -14 171.5
s-28.666 84.166 -57.999 113.499c-38 39.333 -89 59 -153 59c-62 0 -112.667 -19.667 -152 -59c-28.667 -29.333 -47.667 -67.166 -57 -113.499s-14 -103.5 -14 -171.5c0 -67.333 4.66699 -124.166 14 -170.499s28.333 -84.166 57 -113.499c41.333 -41.333 92 -62 152 -62
c62 0 113 20.667 153 62c29.333 29.333 48.666 67.166 57.999 113.499s14 103.166 14 170.499zM895 1366c-29.333 -29.333 -56.001 -52.332 -80.001 -68.999s-46.167 -28.167 -66.5 -34.5s-42.5 -9.5 -66.5 -9.5c-27.333 0 -51.833 3.5 -73.5 10.5
s-48.167 19.167 -79.5 36.5c-44 26 -82.333 39 -115 39c-20.667 0 -39.167 -3.66699 -55.5 -11s-37.5 -24 -63.5 -50l-98 96c42.667 42.667 80 72.167 112 88.5s65.667 24.5 101 24.5c46 0 97 -16.333 153 -49c42.667 -26 80.334 -39 113.001 -39
c19.333 0 38 4.16699 56 12.5s39.667 25.166 65 50.499z" />
    <glyph glyph-name="odieresis" unicode="&#xf6;" horiz-adv-x="1100" 
d="M983 520c0 -96 -8.66699 -175.997 -26 -239.997s-49.666 -120.333 -96.999 -169c-78.667 -82 -182.334 -123 -311.001 -123c-127.333 0 -230.333 41 -309 123c-46.667 48.667 -78.834 105.167 -96.501 169.5s-26.5 144.166 -26.5 239.499c0 93.333 9 172.666 27 237.999
s50 122 96 170c22.667 24 49 45 79 63s64.833 32.5 104.5 43.5s81.5 16.5 125.5 16.5c68.667 0 129 -11.333 181 -34s95.333 -52.334 130 -89.001c46.667 -48.667 78.834 -105.167 96.501 -169.5s26.5 -143.833 26.5 -238.5zM774 520.003c0 68 -4.66699 125.167 -14 171.5
s-28.666 84.166 -57.999 113.499c-38 39.333 -89 59 -153 59c-62 0 -112.667 -19.667 -152 -59c-28.667 -29.333 -47.667 -67.166 -57 -113.499s-14 -103.5 -14 -171.5c0 -67.333 4.66699 -124.166 14 -170.499s28.333 -84.166 57 -113.499c41.333 -41.333 92 -62 152 -62
c62 0 113 20.667 153 62c29.333 29.333 48.666 67.166 57.999 113.499s14 103.166 14 170.499zM889 1346c0 -31.333 -11 -58.666 -33 -81.999s-49.333 -35 -82 -35c-30.667 0 -57.667 11.667 -81 35s-35 50.666 -35 81.999s11.667 58.166 35 80.499s50.333 33.5 81 33.5
c32 0 59.167 -11.167 81.5 -33.5s33.5 -49.166 33.5 -80.499zM440 1346c0 -31.333 -11.333 -58.668 -34 -82.001s-50 -35 -82 -35s-59.167 11.667 -81.5 35s-33.5 50.666 -33.5 81.999c0 30.667 11.333 57.334 34 80.001s49.667 34 81 34s58.5 -11.167 81.5 -33.5
s34.5 -49.166 34.5 -80.499z" />
    <glyph glyph-name="divide" unicode="&#xf7;" horiz-adv-x="1092" 
d="M694 965c0 -40.667 -14.833 -75.5 -44.5 -104.5s-64.5 -43.5 -104.5 -43.5s-74.667 14.667 -104 44s-44 64 -44 104s14.5 74.833 43.5 104.5s63.833 44.5 104.5 44.5c27.333 0 52.333 -6.66699 75 -20s40.667 -31.333 54 -54s20 -47.667 20 -75zM991 471h-893v195h893
v-195zM694 172c0 -27.333 -6.66699 -52.333 -20 -75s-31.333 -40.667 -54 -54s-47.667 -20 -75 -20c-40.667 0 -75.5 14.833 -104.5 44.5s-43.5 64.5 -43.5 104.5c0 40.667 14.5 75.834 43.5 105.501s63.833 44.5 104.5 44.5c28 0 53.333 -6.83301 76 -20.5
s40.5 -31.834 53.5 -54.501s19.5 -47.667 19.5 -75z" />
    <glyph glyph-name="oslash" unicode="&#xf8;" horiz-adv-x="1100" 
d="M983 520c0 -96 -8.66797 -175.999 -26.001 -239.999s-49.666 -120.333 -96.999 -169c-78.667 -82 -182.334 -123 -311.001 -123c-79.333 0 -150.333 17 -213 51l-76 -129h-141l119 203c-31.333 32.667 -56 69.5 -74 110.5s-30.333 84.5 -37 130.5s-10 101.333 -10 166
c0 93.333 9 172.666 27 237.999s50 122 96 170c22.667 24 49 45 79 63s64.833 32.5 104.5 43.5s81.5 16.5 125.5 16.5c79.333 0 151 -17.333 215 -52l76 129h141l-121 -200c46.667 -48.667 78.834 -105.167 96.501 -169.5s26.5 -143.833 26.5 -238.5zM671.999 829.001
c-35.333 23.333 -76.333 34.999 -123 34.999c-62 0 -112.667 -19.667 -152 -59c-28.667 -29.333 -47.667 -67.166 -57 -113.499s-14 -103.5 -14 -171.5c0 -102 10 -176.333 30 -223zM773.999 520c0 102 -10.3311 176.335 -30.998 223.002l-315 -532
c35.333 -24.667 75.666 -37 120.999 -37c62 0 113 20.667 153 62c29.333 29.333 48.666 67.166 57.999 113.499s14 103.166 14 170.499z" />
    <glyph glyph-name="ugrave" unicode="&#xf9;" horiz-adv-x="1163" 
d="M997 0l-204.001 -0.000976562v104c-35.333 -37.333 -77.166 -66 -125.499 -86s-98.833 -30 -151.5 -30c-104.667 0 -190 31.333 -256 94c-38 37.333 -64.833 79.833 -80.5 127.5s-23.5 102.834 -23.5 165.501v663h209v-632c0 -77.333 19.333 -135.333 58 -174
s88.667 -58 150 -58c62.667 0 114.167 19.5 154.5 58.5s60.5 96.833 60.5 173.5v632h209v-1038zM680.999 1227h-157l-228 332h232z" />
    <glyph glyph-name="uacute" unicode="&#xfa;" horiz-adv-x="1163" 
d="M997 0l-204.001 -0.000976562v104c-35.333 -37.333 -77.166 -66 -125.499 -86s-98.833 -30 -151.5 -30c-104.667 0 -190 31.333 -256 94c-38 37.333 -64.833 79.833 -80.5 127.5s-23.5 102.834 -23.5 165.501v663h209v-632c0 -77.333 19.333 -135.333 58 -174
s88.667 -58 150 -58c62.667 0 114.167 19.5 154.5 58.5s60.5 96.833 60.5 173.5v632h209v-1038zM853.999 1559l-228 -332h-157l153 332h232z" />
    <glyph glyph-name="ucircumflex" unicode="&#xfb;" horiz-adv-x="1163" 
d="M997 0l-204.001 -0.000976562v104c-35.333 -37.333 -77.166 -66 -125.499 -86s-98.833 -30 -151.5 -30c-104.667 0 -190 31.333 -256 94c-38 37.333 -64.833 79.833 -80.5 127.5s-23.5 102.834 -23.5 165.501v663h209v-632c0 -77.333 19.333 -135.333 58 -174
s88.667 -58 150 -58c62.667 0 114.167 19.5 154.5 58.5s60.5 96.833 60.5 173.5v632h209v-1038zM926.999 1227h-174l-178 198l-178 -198h-174l264 329h176z" />
    <glyph glyph-name="udieresis" unicode="&#xfc;" horiz-adv-x="1163" 
d="M997 0l-204.001 -0.000976562v104c-35.333 -37.333 -77.166 -66 -125.499 -86s-98.833 -30 -151.5 -30c-104.667 0 -190 31.333 -256 94c-38 37.333 -64.833 79.833 -80.5 127.5s-23.5 102.834 -23.5 165.501v663h209v-632c0 -77.333 19.333 -135.333 58 -174
s88.667 -58 150 -58c62.667 0 114.167 19.5 154.5 58.5s60.5 96.833 60.5 173.5v632h209v-1038zM914.999 1346c0 -31.333 -11 -58.666 -33 -81.999s-49.333 -35 -82 -35c-30.667 0 -57.667 11.667 -81 35s-35 50.666 -35 81.999s11.667 58.166 35 80.499
s50.333 33.5 81 33.5c32 0 59.167 -11.167 81.5 -33.5s33.5 -49.166 33.5 -80.499zM465.999 1346c0 -31.333 -11.333 -58.668 -34 -82.001s-50 -35 -82 -35s-59.167 11.667 -81.5 35s-33.5 50.666 -33.5 81.999c0 30.667 11.333 57.334 34 80.001s49.667 34 81 34
s58.5 -11.167 81.5 -33.5s34.5 -49.166 34.5 -80.499z" />
    <glyph glyph-name="yacute" unicode="&#xfd;" horiz-adv-x="958" 
d="M950 1038l-458 -1245c-20 -54 -45.333 -97 -76 -129c-51.333 -50.667 -122.333 -76 -213 -76h-84v189h53c43.333 0 75.5 7.83301 96.5 23.5s38.833 44.5 53.5 86.5l57 162l-363 989h222l247 -731l242 731h223zM758 1559l-228 -332h-157l153 332h232z" />
    <glyph glyph-name="thorn" unicode="&#xfe;" horiz-adv-x="1135" 
d="M1016 520c0 -65.333 -2.66797 -123.334 -8.00098 -174.001s-16.833 -99.667 -34.5 -147s-42.5 -87 -74.5 -119c-28.667 -28.667 -65 -51.167 -109 -67.5s-91.667 -24.5 -143 -24.5c-57.333 0 -108.166 9.16699 -152.499 27.5s-84.166 48.5 -119.499 90.5v-526h-209v1878
h209v-524c36 42.667 75.833 72.834 119.5 90.501s94.5 26.5 152.5 26.5c51.333 0 99.166 -8.33301 143.499 -25s80.5 -39.334 108.5 -68.001c32 -32 56.833 -71.5 74.5 -118.5s29.167 -95.667 34.5 -146s8 -108.166 8 -173.499zM806.999 519.999
c0 70.667 -5.33105 130.833 -15.998 180.5s-31.834 89.334 -63.501 119.001s-76.834 44.5 -135.501 44.5c-59.333 0 -105 -15 -137 -45s-53.333 -69.667 -64 -119s-16 -109.333 -16 -180s5.33301 -130.834 16 -180.501s32 -89.667 64 -120s77.667 -45.5 137 -45.5
c85.333 0 142.5 30.5 171.5 91.5s43.5 145.833 43.5 254.5z" />
    <glyph glyph-name="ydieresis" unicode="&#xff;" horiz-adv-x="958" 
d="M950 1038l-458 -1245c-20 -54 -45.333 -97 -76 -129c-51.333 -50.667 -122.333 -76 -213 -76h-84v189h53c43.333 0 75.5 7.83301 96.5 23.5s38.833 44.5 53.5 86.5l57 162l-363 989h222l247 -731l242 731h223zM819 1346c0 -31.333 -11 -58.666 -33 -81.999
s-49.333 -35 -82 -35c-30.667 0 -57.667 11.667 -81 35s-35 50.666 -35 81.999s11.667 58.166 35 80.499s50.333 33.5 81 33.5c32 0 59.167 -11.167 81.5 -33.5s33.5 -49.166 33.5 -80.499zM370 1346c0 -31.333 -11.333 -58.668 -34 -82.001s-50 -35 -82 -35
s-59.167 11.667 -81.5 35s-33.5 50.666 -33.5 81.999c0 30.667 11.333 57.334 34 80.001s49.667 34 81 34s58.5 -11.167 81.5 -33.5s34.5 -49.166 34.5 -80.499z" />
    <glyph glyph-name="OE" unicode="&#x152;" horiz-adv-x="2001" 
d="M1888 0l-923 0.000976562v119c-38 -44 -84.333 -76.833 -139 -98.5s-111 -32.5 -169 -32.5c-76 0 -145.333 12.5 -208 37.5s-119.334 62.833 -170.001 113.5c-45.333 45.333 -78 94.833 -98 148.5s-32.333 111.667 -37 174s-7 151.5 -7 267.5s2.33301 205.333 7 268
s17 120.667 37 174s52.667 102.666 98 147.999c50.667 50.667 107.334 88.5 170.001 113.5s132 37.5 208 37.5c130 0 232.667 -43.667 308 -131v119h921v-196h-700v-431h596v-192h-596v-442h702v-197zM965 729.001c0 145.333 -5.5 247.668 -16.5 307.001
s-34.167 108 -69.5 146c-25.333 27.333 -57.5 49.166 -96.5 65.499s-79.167 24.5 -120.5 24.5s-81.166 -8 -119.499 -24s-70.5 -38 -96.5 -66c-35.333 -39.333 -58.5 -88.333 -69.5 -147s-16.5 -160.667 -16.5 -306c0 -77.333 1.16699 -139.166 3.5 -185.499
s6.83301 -86.833 13.5 -121.5s14.667 -61.667 24 -81s24.333 -41 45 -65c56.667 -60 128.667 -90 216 -90c88 0 160.333 30 217 90c24 26 42.167 55.667 54.5 89s20.666 78.666 24.999 135.999s6.5 133.333 6.5 228z" />
    <glyph glyph-name="oe" unicode="&#x153;" horiz-adv-x="1765" 
d="M1653 459l-674 0.00488281c0 -59.333 10.167 -110.833 30.5 -154.5s50 -77.334 89 -101.001s87.167 -35.5 144.5 -35.5s103.666 8 138.999 24s73 43.333 113 82l133 -124c-34.667 -35.333 -71 -65.333 -109 -90s-78.833 -42.834 -122.5 -54.501s-95.5 -17.5 -155.5 -17.5
c-49.333 0 -96.5 5.83301 -141.5 17.5s-85.667 29.667 -122 54s-67.833 55.166 -94.5 92.499c-33.333 -50.667 -79 -90.667 -137 -120s-123.667 -44 -197 -44c-127.333 0 -230.333 41 -309 123c-46.667 48.667 -78.834 105.167 -96.501 169.5s-26.5 144.166 -26.5 239.499
c0 93.333 9 172.666 27 237.999s50 122 96 170c22.667 24 49 45 79 63s64.833 32.5 104.5 43.5s81.5 16.5 125.5 16.5c74.667 0 140.834 -14.5 198.501 -43.5s103.5 -69.833 137.5 -122.5c36.667 54.667 82.334 96 137.001 124s118 42 190 42c90 0 168.667 -21 236 -63
s118.333 -100.833 153 -176.5s52 -162.5 52 -260.5v-92zM1446 604.005c-2 58 -10.999 105 -26.999 141c-16.667 40 -43 72 -79 96s-78.667 36 -128 36c-48.667 0 -90.834 -12.167 -126.501 -36.5s-61.5 -56.166 -77.5 -95.499c-10 -22.667 -17 -43.834 -21 -63.501
s-6.66699 -45.5 -8 -77.5h467zM774.001 520.005c0 68 -4.66699 125.167 -14 171.5s-28.666 84.166 -57.999 113.499c-38 39.333 -89 59 -153 59c-62 0 -112.667 -19.667 -152 -59c-28.667 -29.333 -47.667 -67.166 -57 -113.499s-14 -103.5 -14 -171.5
c0 -67.333 4.66699 -124.166 14 -170.499s28.333 -84.166 57 -113.499c41.333 -41.333 92 -62 152 -62c62 0 113 20.667 153 62c29.333 29.333 48.666 67.166 57.999 113.499s14 103.166 14 170.499z" />
    <glyph glyph-name="Scaron" unicode="&#x160;" horiz-adv-x="1208" 
d="M1102 416c0 -64.667 -12.666 -123.839 -37.999 -177.506s-61.833 -99.334 -109.5 -137.001s-103.167 -66 -166.5 -85s-133.333 -28.5 -210 -28.5c-111.333 0 -208.166 14.833 -290.499 44.5s-157.833 78.834 -226.5 147.501l148 146
c32.667 -33.333 68.5 -60.666 107.5 -81.999s80.5 -36.333 124.5 -45s91 -13 141 -13c94 0 167.667 19.667 221 59s80 94.333 80 165c0 66 -19.333 116.333 -58 151c-17.333 17.333 -37.5 30.5 -60.5 39.5s-55.833 16.5 -98.5 22.5l-172 24
c-118.667 16.667 -211 55.667 -277 117c-70.667 66 -106 158.667 -106 278c0 84.667 19.667 159.334 59 224.001s95.666 114.834 168.999 150.501s159.666 53.5 258.999 53.5c98 0 182.667 -13.167 254 -39.5s137.666 -68.166 198.999 -125.499l-142 -140
c-29.333 28.667 -60.666 51.167 -93.999 67.5s-68 28 -104 35s-75.667 10.5 -119 10.5c-55.333 0 -103 -9.66699 -143 -29s-70.5 -46.166 -91.5 -80.499s-31.5 -73.5 -31.5 -117.5c0 -58 18.333 -103.333 55 -136c18 -15.333 41.667 -29.166 71 -41.499
s60.333 -20.833 93 -25.5l166 -25c66.667 -10 121.167 -23.5 163.5 -40.5s78.5 -39.5 108.5 -67.5c79.333 -69.333 119 -169 119 -299zM948.001 1929l-264 -329h-176l-264 329h174l178 -198l178 198h174z" />
    <glyph glyph-name="scaron" unicode="&#x161;" horiz-adv-x="1022" 
d="M934 317c0 -70.667 -18.3291 -130.665 -54.9961 -179.998s-87.334 -86.5 -152.001 -111.5s-139.667 -37.5 -225 -37.5c-62 0 -118.167 4.33301 -168.5 13s-97.333 23.667 -141 45s-85.834 51.666 -126.501 90.999l137 137c70 -72 169.667 -108 299 -108
c42.667 0 81.5 5.33301 116.5 16s62.167 26.667 81.5 48s29 47.666 29 78.999c0 74.667 -46.333 115.667 -139 123l-166 14c-66 6 -121.833 20 -167.5 42s-80.334 53.333 -104.001 94s-35.5 91 -35.5 151c0 98 37.167 175.5 111.5 232.5s167.5 85.5 279.5 85.5
c167.333 0 295.666 -39 384.999 -117l-131 -133c-60.667 50.667 -146 76 -256 76c-61.333 0 -108.166 -12 -140.499 -36s-48.5 -56.667 -48.5 -98c0 -70 48 -109.333 144 -118l164 -15c64.667 -5.33301 120.167 -19.333 166.5 -42s81.666 -55 105.999 -97
s36.5 -93.333 36.5 -154zM860.004 1556l-264 -329h-176l-264 329h174l178 -198l178 198h174z" />
    <glyph glyph-name="Ydieresis" unicode="&#x178;" horiz-adv-x="1114" 
d="M1104 1458l-436 -858v-600h-222v600l-436 858h242l305 -641l305 641h242zM895 1719c0 -31.333 -11 -58.666 -33 -81.999s-49.333 -35 -82 -35c-30.667 0 -57.667 11.667 -81 35s-35 50.666 -35 81.999s11.667 58.166 35 80.499s50.333 33.5 81 33.5
c32 0 59.167 -11.167 81.5 -33.5s33.5 -49.166 33.5 -80.499zM446 1719c0 -31.333 -11.333 -58.668 -34 -82.001s-50 -35 -82 -35s-59.167 11.667 -81.5 35s-33.5 50.666 -33.5 81.999c0 30.667 11.333 57.334 34 80.001s49.667 34 81 34s58.5 -11.167 81.5 -33.5
s34.5 -49.166 34.5 -80.499z" />
    <glyph glyph-name="florin" unicode="&#x192;" horiz-adv-x="850" 
d="M788 1290h-119.999c-74.667 0 -120 -40.333 -136 -121l-65 -368h207v-160h-236l-186 -1061h-209l186 1061h-168v160h197l68 379c9.33301 52 28.166 99.833 56.499 143.5s66 78.667 113 105s101.5 39.5 163.5 39.5h129v-178z" />
    <glyph glyph-name="circumflex" unicode="&#x2c6;" 
d="M864 1227h-174l-178 198l-178 -198h-174l264 329h176z" />
    <glyph glyph-name="tilde" unicode="&#x2dc;" 
d="M858 1366c-29.333 -29.333 -56.001 -52.332 -80.001 -68.999s-46.167 -28.167 -66.5 -34.5s-42.5 -9.5 -66.5 -9.5c-27.333 0 -51.833 3.5 -73.5 10.5s-48.167 19.167 -79.5 36.5c-44 26 -82.333 39 -115 39c-20.667 0 -39.167 -3.66699 -55.5 -11s-37.5 -24 -63.5 -50
l-98 96c42.667 42.667 80 72.167 112 88.5s65.667 24.5 101 24.5c46 0 97 -16.333 153 -49c42.667 -26 80.334 -39 113.001 -39c19.333 0 38 4.16699 56 12.5s39.667 25.166 65 50.499z" />
    <glyph glyph-name="emdash" unicode="&#x2013;" horiz-adv-x="1092" 
d="M987 471h-883v195h883v-195z" />
    <glyph glyph-name="endash" unicode="&#x2014;" horiz-adv-x="1991" 
d="M1853 473h-1716v199h1716v-199z" />
    <glyph glyph-name="quoteleft" unicode="&#x2018;" horiz-adv-x="549" 
d="M389 1245h-229v213l229 191v-404z" />
    <glyph glyph-name="quoteright" unicode="&#x2019;" horiz-adv-x="549" 
d="M389 1243l-229 -186v401h229v-215z" />
    <glyph glyph-name="quotesinglbase" unicode="&#x201a;" horiz-adv-x="547" 
d="M389 0l-229 -188v403h229v-215z" />
    <glyph glyph-name="quotedblleft" unicode="&#x201c;" horiz-adv-x="940" 
d="M780 1245h-229v213l229 191v-404zM389 1245h-229v213l229 191v-404z" />
    <glyph glyph-name="quotedblright" unicode="&#x201d;" horiz-adv-x="940" 
d="M780 1243l-229 -186v401h229v-215zM389 1243l-229 -186v401h229v-215z" />
    <glyph glyph-name="quotedblbase" unicode="&#x201e;" horiz-adv-x="942" 
d="M780 0l-229 -188v403h229v-215zM389 0l-229 -188v403h229v-215z" />
    <glyph glyph-name="dagger" unicode="&#x2020;" horiz-adv-x="1210" 
d="M1077 874h-368v-874h-209v874h-367v187h367v397h209v-397h368v-187z" />
    <glyph glyph-name="daggerdbl" unicode="&#x2021;" horiz-adv-x="1210" 
d="M1077 -23h-368v-397h-209v397h-367v189h367v708h-367v187h367v397h209v-397h368v-187h-368v-708h368v-189z" />
    <glyph glyph-name="bullet" unicode="&#x2022;" horiz-adv-x="1049" 
d="M858 684c0 -60 -14.998 -115.831 -44.998 -167.498s-70.833 -92.334 -122.5 -122.001s-107.167 -44.5 -166.5 -44.5c-44 0 -86.5 8.83301 -127.5 26.5s-76.833 41.834 -107.5 72.501s-54.834 66.5 -72.501 107.5s-26.5 83.5 -26.5 127.5s8.83301 86.833 26.5 128.5
s41.667 77.667 72 108s65.666 54.166 105.999 71.499s83.5 26 129.5 26c59.333 0 114.833 -14.833 166.5 -44.5s92.5 -70.334 122.5 -122.001s45 -107.5 45 -167.5z" />
    <glyph glyph-name="ellipsis" unicode="&#x2026;" horiz-adv-x="1645" 
d="M1503 143c0 -27.333 -6.66797 -52.333 -20.001 -75s-31.333 -40.667 -54 -54s-47.667 -20 -75 -20c-40 0 -75 14.667 -105 44s-45 64.333 -45 105s14.833 75.5 44.5 104.5s64.834 43.5 105.501 43.5c41.333 0 76.5 -14.5 105.5 -43.5s43.5 -63.833 43.5 -104.5z
M970.999 143c0 -28 -6.83301 -53.333 -20.5 -76s-31.834 -40.5 -54.501 -53.5s-47.667 -19.5 -75 -19.5c-41.333 0 -76.166 14.5 -104.499 43.5s-42.5 64.167 -42.5 105.5s14 76.333 42 105s63 43 105 43s77.5 -14.5 106.5 -43.5s43.5 -63.833 43.5 -104.5zM439.999 143
c0 -27.333 -6.66797 -52.333 -20.001 -75s-31.333 -40.667 -54 -54s-47.667 -20 -75 -20c-40 0 -75 14.667 -105 44s-45 64.333 -45 105s14.833 75.5 44.5 104.5s64.834 43.5 105.501 43.5c41.333 0 76.5 -14.5 105.5 -43.5s43.5 -63.833 43.5 -104.5z" />
    <glyph glyph-name="perthousand" unicode="&#x2030;" horiz-adv-x="2449" 
d="M1606 266c0 -85.333 -27.167 -153.333 -81.5 -204s-122.833 -76 -205.5 -76s-151.167 25.333 -205.5 76s-81.5 118.667 -81.5 204v207c0 56.667 12.5 106.334 37.5 149.001s59.667 75.334 104 98.001s92.833 34 145.5 34s101.167 -11.333 145.5 -34
s79 -55.334 104 -98.001s37.5 -92.334 37.5 -149.001v-207zM1288 1458l-686 -1458h-168l688 1458h166zM692 985c0 -57.333 -12.667 -106.835 -38 -148.502s-59.5 -73.667 -102.5 -96s-91.5 -33.5 -145.5 -33.5c-54.667 0 -103.5 11.167 -146.5 33.5
s-77.167 54.333 -102.5 96s-38 91.167 -38 148.5v207c0 56.667 12.5 106.334 37.5 149.001s59.667 75.334 104 98.001s92.833 34 145.5 34c82 0 150.167 -25.5 204.5 -76.5s81.5 -119.167 81.5 -204.5v-207zM1448 271.998v195c0 48 -10.833 84.5 -32.5 109.5
s-53.834 37.5 -96.501 37.5c-86 0 -129 -49 -129 -147v-195c0 -98 43 -147 129 -147c42.667 0 74.834 12.5 96.501 37.5s32.5 61.5 32.5 109.5zM535 990.998l0.00195312 195c0 48 -10.833 84.5 -32.5 109.5s-53.834 37.5 -96.501 37.5c-86.667 0 -130 -49 -130 -147v-195
c0 -96.667 43.333 -145 130 -145c43.333 0 75.666 12.333 96.999 37s32 60.667 32 108zM2331 265.998c0 -85.333 -27.167 -153.333 -81.5 -204s-122.833 -76 -205.5 -76s-151.167 25.333 -205.5 76s-81.5 118.667 -81.5 204v207c0 56.667 12.5 106.334 37.5 149.001
s59.667 75.334 104 98.001s92.833 34 145.5 34s101.167 -11.333 145.5 -34s79 -55.334 104 -98.001s37.5 -92.334 37.5 -149.001v-207zM2173 271.998v195c0 48 -10.833 84.5 -32.5 109.5s-53.834 37.5 -96.5 37.5c-86 0 -129 -49 -129 -147v-195c0 -98 43 -147 129 -147
c42.667 0 74.834 12.5 96.5 37.5c21.667 25 32.5 61.5 32.5 109.5z" />
    <glyph glyph-name="guilsinglleft" unicode="&#x2039;" horiz-adv-x="694" 
d="M547 86l-471 471l471 469v-252l-219 -217l219 -219v-252z" />
    <glyph glyph-name="guilsinglright" unicode="&#x203a;" horiz-adv-x="694" 
d="M621 557l-474 -471v252l222 219l-222 217v252z" />
    <glyph glyph-name="trademark" unicode="&#x2122;" horiz-adv-x="1808" 
d="M1683 584h-157v571l-185 -367h-145l-184 367v-571h-158v874h158l256 -497l258 497h157v-874zM709 1317h-236v-733h-156v733h-233v141h625v-141z" />
    <glyph glyph-name="periodcentered" unicode="&#x2219;" horiz-adv-x="582" 
d="M440 565c0 -27.333 -6.66797 -52.333 -20.001 -75s-31.333 -40.667 -54 -54s-47.667 -20 -75 -20c-40 0 -75 14.667 -105 44s-45 64.333 -45 105s14.833 75.5 44.5 104.5s64.834 43.5 105.501 43.5c41.333 0 76.5 -14.5 105.5 -43.5s43.5 -63.833 43.5 -104.5z" />
    <glyph glyph-name=".null" horiz-adv-x="0" 
 />
    <glyph glyph-name="nonmarkingreturn" horiz-adv-x="0" 
 />
    <glyph glyph-name="Lslash" horiz-adv-x="1202" 
d="M1141 0h-922v545l-141 -90v190l141 88v725h221v-586l289 183v-187l-289 -182v-487h701v-199z" />
    <glyph glyph-name="lslash" horiz-adv-x="668" 
d="M602 0h-128.999c-94.667 0 -165.834 27.167 -213.501 81.5s-71.5 122.833 -71.5 205.5v370l-120 -73v178l120 74v622h209v-495l144 88v-177l-144 -90v-485c0 -41.333 8.66699 -71.833 26 -91.5s46.333 -29.5 87 -29.5h92v-178z" />
    <glyph glyph-name="Zcaron" horiz-adv-x="1130" 
d="M1032 0h-934v190l674 1070h-645v198h905v-180l-678 -1079h678v-199zM927 1929l-264 -329h-176l-264 329h174l178 -198l178 198h174z" />
    <glyph glyph-name="zcaron" horiz-adv-x="961" 
d="M862 0h-774v166l516 686h-487v186h745v-166l-520 -686h520v-186zM841 1556l-264 -329h-176l-264 329h174l178 -198l178 198h174z" />
    <glyph glyph-name="notequal" horiz-adv-x="1169" 
d="M1065 272h-621l-211 -245l-129 104l125 141h-125v195h283l180 203h-463v194h619l213 246l129 -104l-125 -142h125v-194h-283l-180 -203h463v-195z" />
    <glyph glyph-name="infinity" horiz-adv-x="1700" 
d="M1575 565c0 -67.333 -14.3291 -128.166 -42.9961 -182.499s-70 -96.833 -124 -127.5s-117.667 -46 -191 -46c-68.667 0 -131.834 16.333 -189.501 49s-116.834 84 -177.501 154c-41.333 -48 -80.333 -86.333 -117 -115s-76 -50.834 -118 -66.501s-86 -23.5 -132 -23.5
c-110 0 -197.167 34 -261.5 102s-96.5 153.333 -96.5 256c0 103.333 32 189 96 257s151.333 102 262 102c68.667 0 132.667 -17 192 -51s117.666 -85.333 174.999 -154c59.333 70 117.833 121.667 175.5 155s121.5 50 191.5 50c56 0 106.333 -9 151 -27
s82.167 -43 112.5 -75s53.666 -70 69.999 -114s24.5 -91.667 24.5 -143zM1374 561c0 48 -15.332 86.667 -45.999 116s-69.334 44 -116.001 44c-38 0 -72.5 -12.333 -103.5 -37s-70.833 -65.667 -119.5 -123c48.667 -57.333 88.5 -98.666 119.5 -123.999s65.5 -38 103.5 -38
c46 0 84.5 15.167 115.5 45.5s46.5 69.166 46.5 116.499zM711.005 561c-48.667 57.333 -88.666 98.666 -119.999 123.999s-66.666 38 -105.999 38c-46 0 -84 -14.667 -114 -44s-45 -68.666 -45 -117.999c0 -30.667 7 -58.667 21 -84s33.167 -44.666 57.5 -57.999
s51.166 -20 80.499 -20c38.667 0 74.167 13.167 106.5 39.5s72.166 67.166 119.499 122.499z" />
    <glyph glyph-name="lessequal" horiz-adv-x="2103" 
d="M1788 1096l-1077 -1080l997 2l-188 -186h-1137v1135l188 188l-2 -997l1080 1079z" />
    <glyph glyph-name="greaterequal" horiz-adv-x="2103" 
d="M1718 -168h-1134l-189 186l998 -2l-1080 1080l142 141l1079 -1079l-4 997l188 -190v-1133z" />
    <glyph glyph-name="partialdiff" horiz-adv-x="1124" 
d="M958 510c0 -63.333 -3.33398 -118.499 -10.001 -165.499s-18.667 -90.5 -36 -130.5s-40.666 -75 -69.999 -105c-76 -80.667 -175.667 -121 -299 -121c-126 0 -226.333 40.333 -301 121c-31.333 32 -55.5 67.667 -72.5 107s-28.667 82.333 -35 129s-9.5 101.667 -9.5 165
c0 66 3.33301 122.333 10 169s18.334 89.667 35.001 129s40.667 75 72 107c74 78 170 117 288 117c46.667 0 87.5 -5.83301 122.5 -17.5s67.5 -34.5 97.5 -68.5v96c0 42 -8.16699 81.833 -24.5 119.5s-42.833 68.834 -79.5 93.501s-83.334 37 -140.001 37
c-49.333 0 -90.333 -6.66699 -123 -20s-66.667 -36.666 -102 -69.999l-131 131c35.333 33.333 71 60.166 107 80.499s74.667 34.833 116 43.5s88.333 13 141 13c96 0 177.167 -19.333 243.5 -58s116.333 -92.834 150 -162.501s50.5 -150.834 50.5 -243.501v-496z
M749.999 510.001c0 137.333 -22.001 229.334 -66.001 276.001c-40 40 -87 60 -141 60c-56 0 -104 -20 -144 -60c-26.667 -28.667 -44.167 -66 -52.5 -112s-12.5 -100.667 -12.5 -164c0 -64 4 -118.667 12 -164s25.667 -83 53 -113c40.667 -39.333 88.667 -59 144 -59
c53.333 0 100.333 19.667 141 59c26.667 28.667 44.334 65.667 53.001 111s13 100.666 13 165.999z" />
    <glyph glyph-name="summation" horiz-adv-x="1130" 
d="M1040 -420h-942v180l400 832l-396 784v180h932v-198h-674l330 -666v-205l-336 -708h686v-199z" />
    <glyph glyph-name="product" horiz-adv-x="1413" 
d="M1225 -420h-224v1780h-589v-1780h-222v1976h1035v-1976z" />
    <glyph glyph-name="pi" horiz-adv-x="1210" 
d="M1030 0h-205v844h-438v-844h-207v1038h850v-1038z" />
    <glyph glyph-name="integral" horiz-adv-x="887" 
d="M788 1296l-90 0.000976562c-98 0 -147 -50.333 -147 -151v-1227c0 -102 -30.167 -182.833 -90.5 -242.5s-142.166 -89.5 -245.499 -89.5h-117v178h90c48.667 0 85.167 12.667 109.5 38s36.5 63.333 36.5 114v1227c0 67.333 13.833 126.166 41.5 176.499
s67.167 88.833 118.5 115.5s110.666 40 177.999 40h116v-179z" />
    <glyph glyph-name="Omega" horiz-adv-x="1325" 
d="M1186 0l-424 -0.00195312v178c66 32.667 115 73.667 147 123c21.333 32.667 36 79.5 44 140.5s12 153.5 12 277.5c0 146 -5.66699 249.833 -17 311.5s-34.333 111.5 -69 149.5c-27.333 28.667 -59.666 51.167 -96.999 67.5s-77.333 24.5 -120 24.5
c-84 0 -156 -30.667 -216 -92c-35.333 -39.333 -58.5 -89.5 -69.5 -150.5s-16.5 -164.5 -16.5 -310.5c0 -122 3.66699 -213.833 11 -275.5s21.666 -109.167 42.999 -142.5c32 -49.333 81 -90.333 147 -123v-178h-424v197h144c-38.667 34.667 -69.667 76.334 -93 125.001
c-21.333 48.667 -35.166 105.667 -41.499 171s-9.5 144 -9.5 236c0 88.667 1.16699 159 3.5 211s7.66602 99.667 15.999 143s22 83.833 41 121.5s46.167 74.5 81.5 110.5c103.333 103.333 231 155 383 155s280.333 -51.667 385 -155
c44.667 -46.667 76.834 -96.5 96.501 -149.5s31.667 -110.167 36 -171.5s6.5 -149.666 6.5 -264.999c0 -100 -2.66699 -181 -8 -243s-19 -116.667 -41 -164c-22.667 -46 -54.334 -87.667 -95.001 -125h144v-197z" />
    <glyph glyph-name="radical" horiz-adv-x="1188" 
d="M1126 1260h-186l-414 -1260h-172l-344 1038h228l202 -641l334 1061h352v-198z" />
    <glyph glyph-name="approxequal" horiz-adv-x="1176" 
d="M1087 778c-61.333 -61.333 -113.5 -102.833 -156.5 -124.5s-91.833 -32.5 -146.5 -32.5c-37.333 0 -72.5 5 -105.5 15s-74.167 26.667 -123.5 50c-64 32.667 -118 49 -162 49c-32 0 -59.833 -5.5 -83.5 -16.5s-53.834 -34.833 -90.501 -71.5l-131 131
c60 60 111.5 101.333 154.5 124s91.833 34 146.5 34c38.667 0 75.167 -5.5 109.5 -16.5s73.5 -27.5 117.5 -49.5c67.333 -32.667 122 -49 164 -49c30.667 0 58.334 5.5 83.001 16.5s55 34.833 91 71.5zM1087 365c-60.667 -60.667 -112.334 -102.5 -155.001 -125.5
s-91.334 -34.5 -146.001 -34.5c-34.667 0 -69.5 5.5 -104.5 16.5s-76.5 27.833 -124.5 50.5c-65.333 33.333 -119.333 50 -162 50c-31.333 0 -59.166 -5.83301 -83.499 -17.5s-55.166 -36.167 -92.499 -73.5l-131 131c62 62 114.667 104.167 158 126.5
s91.666 33.5 144.999 33.5c38.667 0 75.834 -5.83301 111.501 -17.5s74.167 -28.167 115.5 -49.5c65.333 -32.667 120 -49 164 -49c31.333 0 59.333 6 84 18s54.667 36 90 72z" />
    <glyph glyph-name="Delta" horiz-adv-x="1268" 
d="M1255 0h-1245l535 1458h178zM967 188l-330 940l-332 -940h662z" />
    <glyph glyph-name="lozenge" horiz-adv-x="1315" 
d="M1192 709l-535 -748l-532 748l532 747zM956 709l-299 424l-299 -424l299 -426z" />
    <glyph glyph-name="fraction" horiz-adv-x="403" 
d="M629 1458l-686 -1458h-168l686 1458h168z" />
    <glyph glyph-name="fi" horiz-adv-x="1192" 
d="M1055 1376c0 -36.667 -13.6689 -68.332 -41.002 -94.999s-58.666 -40 -93.999 -40s-66.5 13.5 -93.5 40.5s-40.5 58.5 -40.5 94.5c0 37.333 13.167 69.166 39.5 95.499s57.833 39.5 94.5 39.5s68.334 -13 95.001 -39s40 -58 40 -96zM1024 0.00195312h-209v1020h209v-1020
zM605.998 860.002h-205v-860h-208v860h-121v160h121v160c0 51.333 10.5 99 31.5 143s52.833 79.167 95.5 105.5s95 39.5 157 39.5h129v-178h-92c-75.333 0 -113 -40.333 -113 -121v-149h205v-160z" />
    <glyph glyph-name="fl" horiz-adv-x="1282" 
d="M1227 0h-128.999c-94.667 0 -165.834 27.167 -213.501 81.5s-71.5 122.833 -71.5 205.5v1171h209v-1159c0 -41.333 8.66699 -71.833 26 -91.5s46.333 -29.5 87 -29.5h92v-178zM608.001 860h-205v-860h-208v860h-119v160h119v160c0 51.333 10.5 99 31.5 143
s52.833 79.167 95.5 105.5s95 39.5 157 39.5h129v-178h-92c-75.333 0 -113 -40.333 -113 -121v-149h205v-160z" />
    <glyph glyph-name="dotlessi" horiz-adv-x="541" 
d="M375 0h-209v1038h209v-1038z" />
    <glyph glyph-name="breve" 
d="M850 1505c-4 -66.667 -20.167 -122.168 -48.5 -166.501s-67 -77.166 -116 -98.499s-106.167 -32 -171.5 -32c-100 0 -180.167 24.5 -240.5 73.5s-93.5 123.5 -99.5 223.5h152c6 -46 25.833 -81.667 59.5 -107s76.5 -38 128.5 -38c51.333 0 94 12.667 128 38s54 61 60 107
h148z" />
    <glyph glyph-name="dotaccent" 
d="M623 1270h-222v186h222v-186z" />
    <glyph glyph-name="ring" 
d="M768 1436c0 -46 -11.5 -88.667 -34.5 -128s-54.167 -70.5 -93.5 -93.5s-82 -34.5 -128 -34.5s-88.667 11.5 -128 34.5s-70.5 54.167 -93.5 93.5s-34.5 82 -34.5 128s11.5 88.667 34.5 128s54.167 70.5 93.5 93.5s82 34.5 128 34.5s88.667 -11.5 128 -34.5
s70.5 -54.167 93.5 -93.5s34.5 -82 34.5 -128zM643 1436c0 36 -12.5 66.501 -37.5 91.501s-56.167 37.5 -93.5 37.5c-36.667 0 -67.667 -12.667 -93 -38s-38 -55.666 -38 -90.999c0 -34.667 12.833 -64.834 38.5 -90.501s56.5 -38.5 92.5 -38.5
c36.667 0 67.667 12.667 93 38s38 55.666 38 90.999z" />
    <glyph glyph-name="hungarumlaut" 
d="M934 1559l-229 -332h-156l156 332h229zM555 1559l-227 -332h-158l154 332h231z" />
    <glyph glyph-name="ogonek" 
d="M674 -432h-207l-105 301h168z" />
    <glyph glyph-name="caron" 
d="M864 1556l-264 -329h-176l-264 329h174l178 -198l178 198h174z" />
  </font>
</defs>
</svg>
